Правила форума

  • В этом разделе создание новых тем Запрещено.
  • Для создания новых тем пользуйтесь Корневым разделом DVD и HD фильмы.
Начать новую темуОтветить на тему  [ Сообщений: 2 ] 
Торрент файл
Размер: 8.45 GB • Зарегистрирован: 5 лет 3 месяца • Статус: Проверено
Скачан: 52 раза • Желающих скачать: 0 • Поблагодарили: 14 раз
 Раздают: 0  |  0 KB/s  ]   Качают: 0  |  0 KB/s  ] 
 Полного источника не было 3 года 2 месяца 
Сообщения
 Добавлено: 2011-08-28 22:44
Руководитель релиз-группы
Аватара пользователя
Стаж: 9 лет 1 месяц
Возраст: 28
Сообщений: 4244
Спасибок: 31998
Лайков: 32
Изображение

Видок
Vidocq


«Пришло время узнать правду...»

Год выпуска: 2001
Страна: Изображение Франция
Жанр: фэнтези, триллер, криминал, детектив
Продолжительность: 01:37:39
Перевод: Профессиональный (полное дублирование) + Оригинал + Субтитры (русские, английские, финские, шведские, датские, испанские, норвежские, немецкие)

Режиссер: Питоф
Сценарий: Франсуа-Эжен Видок, Питоф, Жан-Кристоф Гранже
Продюсер: Доминик Фарруджия, Оливье Гранье
Оператор: Жан-Пьер Совер, Жан-Клод Тибо
Композитор: Бруно Куле

В ролях: Жерар Депардье, Гийом Кане, Инес Састр, Андре Дюссолье, Эдит Скоб, Мусса Мааскри, Жан-Пьер Гос, Изабель Рено

Описание: Париж ХIХ века охвачен паникой. В его «чреве» завелся серийный убийца, которого может вычислить только гениальный сыщик Видок. Реальный исторический персонаж, не знающий удержу — особенно в исполнении громоподобного Депардье — ни в своих перевоплощениях, ни в дьявольской интуиции.
Он мчится по следу загадочного Алхимика. Волшебные декорации города, который разрывают вспышки молний, потайные двери, одуряющие наркотическим безумием, в хитроумную лабораторию, где кружится голова.

Раздача: Изображение

kinopoisk.ru: 7.410 (11 504)

Изображение
Фильм получил
главную награду
Кинофестиваля
в Ситжесе
в 2001 году


Доп. информация
Бюджет: FRF 152 000 000
Сборы в России: $565 693
Премьера (мир): 19 сентября 2001
Премьера (РФ): 13 декабря 2001, «Централ Партнершип»
Релиз на DVD: 24 сентября 2009, «CP-Digital»
Рейтинг R — Restricted. Подростки до 17 лет допускаются на фильм только в сопровождении одного из родителей
Изображение
Ограничение — до 17 лет требуется сопровождение родителя или взрослого опекуна (возраст может меняться в некоторых регионах). Данный рейтинг показывает, что оценочная комиссия заключила, что некоторый материал оценённого фильма предназначается для взрослых. Родители должны больше узнать о фильме прежде, чем взять на его просмотр детей. Рейтинг R также может быть назначен из-за используемого в фильме языка, темы, насилия, секса или изображения употребления наркотиков.
Свернуть
Свернуть
Знаете ли вы, что...
* Фильм крайне вольно использует факты жизни реального сыщика Эжена-Франсуа Видока (1775-1857), который был вором, а после превратился в знаменитейшего частного детектива, своего рода французский аналог Ната Пинкертона.
* «Видок» - первый в истории фильм, целиком снятый на цифровую видеокамеру. Вторым к финишу пришел Джордж Лукас со 'Звездными войнами. Эпизод 2'.
* Видок написал ряд книг о собственных приключениях. И в ХХ веке стал одной из любимых фигур французского масскульта, героем многочисленных романов, фильмов и пьес.
* Первоначально Видока должен был играть Даниэль Оттой. Однако в связи с решением снимать фильм новыми цифровыми камерами производство было отложено, а это шло вразрез с планами Оттоя, и он покинул проект.
* Первоначальный проект сценария был написан сценаристом и режиссером Давидом Факрикианом и сценаристом и актером Александром Преслем. В этом варианте Видок бросал вызов негодяям от политики, затеявшим подлую политическую интригу. Действие фильма должно было продолжаться три дня, а в финале действия Видока приводили к июльской революции 1830 года, с показом тысячных толп французских граждан, сражающихся с полицейскими силами. Однако такой вариант сюжета был отвергнут продюсерами как слишком радикальный и подрывной. В результате от первоначального проекта в фильме сохранились только время и место действия, имена главных героев и концепция художественного оформления.
* После схватки с Алхимиком Видок падает в колодец - и впоследствии оказывается спасенным точно таким же образом, каким спасся Люк Скайуокер после схватки с Дартом Вейдером в фильме 'Звездные войны. Эпизод V: Империя наносит ответный удар' (1980).
Свернуть

Качество: BDRip 1080p
Формат: Matroska
Видео: 1920x1044, x264, 23.976 fps, ~10111 kbps, 0.210 bpp
Аудио #1: DTS 5.1, 768 kbps, 48.0 KHz [DUB]
Аудио #2: DTS 5.1, 1536 kbps, 48.0 KHz [FRE]


MediaInfo
General
Unique ID : 176413763117676569437746204308030279464 (0x84B80E0DDD006D0B93043CF7D156CF28)
Complete name : L:\films\Vidocq.2001.BDRip.1080p[R.G.KiNOvNiNO].mkv
Format : Matroska
File size : 8.45 GiB
Duration : 1h 37mn
Overall bit rate : 12.4 Mbps
Movie name : -=HANSMER=- (HQ-Films.ws)
Encoded date : UTC 2008-08-16 11:05:36
Writing application : mkvmerge v2.2.0 ('Turn It On Again') built on Mar 4 2008 13:20:25
Writing library : libebml v0.7.7 + libmatroska v0.8.1
Cover : Yes / Yes / Yes

Video
ID : 1
Format : AVC
Format/Info : Advanced Video Codec
Format profile : High@L5.0
Format settings, CABAC : Yes
Format settings, ReFrames : 6 frames
Codec ID : V_MPEG4/ISO/AVC
Duration : 1h 37mn
Bit rate : 10.1 Mbps
Width : 1 920 pixels
Height : 1 044 pixels
Display aspect ratio : 16:9
Frame rate : 23.976 fps
Color space : YUV
Chroma subsampling : 4:2:0
Bit depth : 8 bits
Scan type : Progressive
Bits/(Pixel*Frame) : 0.210
Stream size : 6.73 GiB (80%)
Title : Vidocq.2001.1080p.BluRay.DTS.x264-ESiR
Writing library : x264 core 61
Encoding settings : cabac=1 / ref=6 / deblock=1:-3:-3 / analyse=0x3:0x133 / me=umh / subme=6 / psy_rd=1.0 / brdo=1 / mixed_ref=1 / me_range=16 / chroma_me=1 / trellis=2 / 8x8dct=1 / cqm=0 / deadzone=21,11 / chroma_qp_offset=-4 / threads=6 / nr=0 / decimate=1 / mbaff=0 / bframes=5 / b_pyramid=1 / b_adapt=1 / b_bias=0 / direct=1 / wpredb=1 / bime=1 / keyint=250 / keyint_min=25 / scenecut=40(pre) / rc=2pass / bitrate=10111 / ratetol=1.0 / rceq='blurCplx^(1-qComp)' / qcomp=1.00 / qpmin=8 / qpmax=51 / qpstep=4 / cplxblur=20.0 / qblur=0.5 / ip_ratio=1.40 / pb_ratio=1.30 / aq=2:0.80
Language : French

Audio #1
ID : 2
Format : DTS
Format/Info : Digital Theater Systems
Codec ID : A_DTS
Duration : 1h 37mn
Bit rate mode : Constant
Bit rate : 755 Kbps
Channel(s) : 6 channels
Channel positions : Front: L C R, Side: L R, LFE
Sampling rate : 48.0 KHz
Bit depth : 24 bits
Compression mode : Lossy
Stream size : 527 MiB (6%)
Language : Russian

Audio #2
ID : 3
Format : DTS
Format/Info : Digital Theater Systems
Codec ID : A_DTS
Duration : 1h 37mn
Bit rate mode : Constant
Bit rate : 1 510 Kbps
Channel(s) : 6 channels
Channel positions : Front: L C R, Side: L R, LFE
Sampling rate : 48.0 KHz
Bit depth : 16 bits
Compression mode : Lossy
Stream size : 1.03 GiB (12%)
Language : French

Text #1
ID : 4
Format : UTF-8
Codec ID : S_TEXT/UTF8
Codec ID/Info : UTF-8 Plain Text
Language : Russian

Text #2
ID : 5
Format : ASS
Codec ID : S_TEXT/ASS
Codec ID/Info : Advanced Sub Station Alpha
Compression mode : Lossless
Language : English

Text #3
ID : 6
Format : ASS
Codec ID : S_TEXT/ASS
Codec ID/Info : Advanced Sub Station Alpha
Compression mode : Lossless
Language : Finnish

Text #4
ID : 7
Format : ASS
Codec ID : S_TEXT/ASS
Codec ID/Info : Advanced Sub Station Alpha
Compression mode : Lossless
Language : Swedish

Text #5
ID : 8
Format : ASS
Codec ID : S_TEXT/ASS
Codec ID/Info : Advanced Sub Station Alpha
Compression mode : Lossless
Language : Danish

Text #6
ID : 9
Format : ASS
Codec ID : S_TEXT/ASS
Codec ID/Info : Advanced Sub Station Alpha
Compression mode : Lossless
Language : Norwegian

Text #7
ID : 10
Format : ASS
Codec ID : S_TEXT/ASS
Codec ID/Info : Advanced Sub Station Alpha
Compression mode : Lossless
Language : Spanish

Text #8
ID : 11
Format : ASS
Codec ID : S_TEXT/ASS
Codec ID/Info : Advanced Sub Station Alpha
Compression mode : Lossless
Language : Dutch
Свернуть

Скриншоты

Изображение

Изображение

Изображение

Свернуть
_________________
«you failed because you had the wrong dream...»
Не в сети
Профиль  
 Добавлено: 2011-08-29 03:04 (спустя 4 часа)
Top-seeder
Аватара пользователя
Стаж: 6 лет 10 месяцев
Возраст: 28
Сообщений: 280
Спасибок: 606
Круть!
Помню ещё глядел его на VHS :ti_pa:
Не в сети
Профиль  
Начать новую темуОтветить на тему  [ Сообщений: 2 ] 
Вы не можете начинать темы
Вы не можете отвечать на сообщения
Вы не можете редактировать свои сообщения
Вы не можете удалять свои сообщения
cron