Правила форума

  • В этом разделе создание новых тем Запрещено.
  • Для создания новых тем пользуйтесь Корневым разделом DVD и HD фильмы.
Начать новую темуОтветить на тему  [ Сообщений: 2 ] 
Торрент файл
Размер: 5.39 GB • Зарегистрирован: 4 года 8 месяцев • Статус: Проверено
Скачан: 31 раз • Желающих скачать: 0 • Поблагодарили: 6 раз
 Раздают: 0  |  0 KB/s  ]   Качают: 0  |  0 KB/s  ] 
 Полного источника не было 3 года 2 месяца 
Сообщения
 Добавлено: 2012-03-09 13:53
Аватара пользователя
Стаж: 8 лет 11 месяцев
Возраст: 26
Сообщений: 1723
Спасибок: 1538
Лайков: 8
Видок / Vidocq


«Пришло время узнать правду...»

Изображение
Год выпуска: 2001
Страна: Франция
Жанр: фантастика, фэнтези, боевик, триллер, криминал, детектив
Продолжительность: 01:37:31
Перевод: Профессиональный (полное дублирование) + Оригинал + Субтитры (Русские)

Режиссер: Питоф
Сценарий: Франсуа-Эжен Видок, Питоф, Жан-Кристоф Гранже
Продюсер: Доминик Фарруджия, Оливье Гранье
Оператор: Жан-Пьер Совер, Жан-Клод Тибо
Композитор: Бруно Куле

В ролях: Жерар Депардье, Гийом Кане, Инес Састр, Андре Дюссолье, Эдит Скоб, Мусса Мааскри, Жан-Пьер Гос, Изабель Рено

Описание: Париж ХIХ века охвачен паникой. В его «чреве» завелся серийный убийца, которого может вычислить только гениальный сыщик Видок. Реальный исторический персонаж, не знающий удержу — особенно в исполнении громоподобного Депардье — ни в своих перевоплощениях, ни в дьявольской интуиции.
Он мчится по следу загадочного Алхимика. Волшебные декорации города, который разрывают вспышки молний, потайные двери, одуряющие наркотическим безумием, в хитроумную лабораторию, где кружится голова.


Раздача: Изображение

kinopoisk.ru: 7.432 (14649)

Доп. информация
Бюджет: FRF 152 000 000
Премьера (мир): 19 сентября 2001
Рейтинг R — Restricted. Подростки до 17 лет допускаются на фильм только в сопровождении одного из родителей
Изображение
Ограничение — до 17 лет требуется сопровождение родителя или взрослого опекуна (возраст может меняться в некоторых регионах). Данный рейтинг показывает, что оценочная комиссия заключила, что некоторый материал оценённого фильма предназначается для взрослых. Родители должны больше узнать о фильме прежде, чем взять на его просмотр детей. Рейтинг R также может быть назначен из-за используемого в фильме языка, темы, насилия, секса или изображения употребления наркотиков.
Свернуть
Свернуть
Знаете ли вы, что...
Фильм крайне вольно использует факты жизни реального сыщика Эжена-Франсуа Видока (1775-1857), который был вором, а после превратился в знаменитейшего частного детектива, своего рода французский аналог Ната Пинкертона.
«Видок» - первый в истории фильм, целиком снятый на цифровую видеокамеру. Вторым к финишу пришел Джордж Лукас со 'Звездными войнами. Эпизод 2'.
Видок написал ряд книг о собственных приключениях. И в ХХ веке стал одной из любимых фигур французского масскульта, героем многочисленных романов, фильмов и пьес.
Первоначально Видока должен был играть Даниэль Оттой. Однако в связи с решением снимать фильм новыми цифровыми камерами производство было отложено, а это шло вразрез с планами Оттоя, и он покинул проект.
Первоначальный проект сценария был написан сценаристом и режиссером Давидом Факрикианом и сценаристом и актером Александром Преслем. В этом варианте Видок бросал вызов негодяям от политики, затеявшим подлую политическую интригу. Действие фильма должно было продолжаться три дня, а в финале действия Видока приводили к июльской революции 1830 года, с показом тысячных толп французских граждан, сражающихся с полицейскими силами. Однако такой вариант сюжета был отвергнут продюсерами как слишком радикальный и подрывной. В результате от первоначального проекта в фильме сохранились только время и место действия, имена главных героев и концепция художественного оформления.
После схватки с Алхимиком Видок падает в колодец - и впоследствии оказывается спасенным точно таким же образом, каким спасся Люк Скайуокер после схватки с Дартом Вейдером в фильме 'Звездные войны. Эпизод V: Империя наносит ответный удар' (1980).
Свернуть
MediaInfo
Общее
Уникальный идентификатор : 219728034417040985954635900814530674863 (0xA54E14821F60B5C0833E1CD2E2C380AF)
Полное имя : C:\Users\User\Desktop\Vidocq.2001.BDRip.720p[R.G.KINOvNINO].mkv
Формат : Matroska
Размер файла : 5,39 Гбайт
Продолжительность : 1 ч. 37 м.
Общий поток : 7910 Кбит/сек
Название фильма : Vidocq (2001) - Release for HDCLUB
Дата кодирования : UTC 2010-06-21 06:48:36
Программа кодирования : mkvmerge v3.3.0 ('Language') built on Mar 24 2010 14:59:24
Библиотека кодирования : libebml v0.8.0 + libmatroska v0.9.0

Видео
Идентификатор : 1
Формат : AVC
Формат/Информация : Advanced Video Codec
Профиль формата : High@L4.1
Параметр CABAC формата : Да
Параметр ReFrames формата : 7 кадров
Идентификатор кодека : V_MPEG4/ISO/AVC
Продолжительность : 1 ч. 37 м.
Битрейт : 5656 Кбит/сек
Ширина : 1280 пикс.
Высота : 696 пикс.
Соотношение сторон : 16:9
Частота кадров : 24,000 кадр/сек
Цветовое пространство : YUV
Подвыборка цветности : 4:2:0
Битовая глубина : 8 бит
Тип развёртки : Прогрессивная
Бит/(Пиксели*Кадры) : 0.265
Размер потока : 3,74 Гбайт (69%)
Библиотека кодирования : x264 core 98 r1643 59a9e03
Настройки программы : cabac=1 / ref=8 / deblock=1:-3:-3 / analyse=0x3:0x133 / me=umh / subme=9 / psy=1 / psy_rd=1.00:0.00 / mixed_ref=1 / me_range=32 / chroma_me=1 / trellis=2 / 8x8dct=1 / cqm=0 / deadzone=21,11 / fast_pskip=0 / chroma_qp_offset=-2 / threads=12 / sliced_threads=0 / nr=0 / decimate=0 / interlaced=0 / constrained_intra=0 / bframes=8 / b_pyramid=1 / b_adapt=2 / b_bias=0 / direct=3 / weightb=1 / weightp=2 / keyint=250 / keyint_min=25 / scenecut=40 / intra_refresh=0 / rc_lookahead=60 / rc=2pass / mbtree=0 / bitrate=5656 / ratetol=1.0 / qcomp=0.60 / qpmin=10 / qpmax=51 / qpstep=4 / cplxblur=20.0 / qblur=0.5 / vbv_maxrate=50000 / vbv_bufsize=62500 / ip_ratio=1.40 / pb_ratio=1.30 / aq=1:0.80 / nal_hrd=none
Язык : English

Аудио #1
Идентификатор : 2
Формат : DTS
Формат/Информация : Digital Theater Systems
Идентификатор кодека : A_DTS
Продолжительность : 1 ч. 37 м.
Вид битрейта : Постоянный
Битрейт : 755 Кбит/сек
Каналы : 6 каналов
Расположение каналов : Front: L C R, Side: L R, LFE
Частота : 48,0 КГц
Битовая глубина : 24 бит
Метод сжатия : С потерями
Размер потока : 527 Мбайт (10%)
Заголовок : DTS 5.1 @ 768 kbps - Дублированный
Язык : Russian

Аудио #2
Идентификатор : 3
Формат : DTS
Формат/Информация : Digital Theater Systems
Идентификатор кодека : A_DTS
Продолжительность : 1 ч. 37 м.
Вид битрейта : Постоянный
Битрейт : 1510 Кбит/сек
Каналы : 6 каналов
Расположение каналов : Front: L C R, Side: L R, LFE
Частота : 48,0 КГц
Битовая глубина : 16 бит
Метод сжатия : С потерями
Задержка видео : 9 с. 542 мс.
Размер потока : 1,03 Гбайт (19%)
Заголовок : DTS 5.1 @ 1536 kbps
Язык : French

Текст
Идентификатор : 4
Формат : UTF-8
Идентификатор кодека : S_TEXT/UTF8
Идентификатор кодека/Информация : UTF-8 Plain Text
Язык : Russian
Свернуть


Качество: BDRip 720p
Формат: MKV
Видео: 1280x696, ~5656 kbps, 24,000 fps, 0.265 bit/pixel
Аудио #1: DTS 5.1 / 48 kHz / 768 kbps / 24-bit (Профессиональный (полное дублирование) R5)
Аудио #2: DTS 5.1 / 48 kHz / 1536 kbps / 24-bit (Оригинал)

Скриншоты

Изображение

Изображение

Изображение

Свернуть
Не в сети
Профиль  
 Добавлено: 2012-04-05 08:25 (спустя 26 дней)
Стаж: 4 года 8 месяцев
Сообщений: 53
Лайков: 1
спасибо!
Не в сети
Профиль  
Начать новую темуОтветить на тему  [ Сообщений: 2 ] 
Вы не можете начинать темы
Вы не можете отвечать на сообщения
Вы не можете редактировать свои сообщения
Вы не можете удалять свои сообщения