Правила форума

  • В этом разделе создание новых тем Запрещено.
  • Для создания новых тем пользуйтесь Корневым разделом DVD и HD фильмы.
Начать новую темуОтветить на тему  [ Сообщений: 4 ] 
Торрент файл
Размер: 10.61 GB • Зарегистрирован: 2 года 3 месяца • Статус: Проверено
Скачан: 25 раз • Желающих скачать: 0 • Поблагодарили: 5 раз
 Раздают: 1  |  0 KB/s  ]   Качают: 0  |  0 KB/s  ] 
Сообщения
 Добавлено: 2014-09-03 11:09
RG-ELEKTRO
Аватара пользователя
Стаж: 2 года 3 месяца
Сообщений: 7928
Спасибок: 53761
Лайков: 3304

Изображение

Информация о фильме
Название: Виноваты звезды
Оригинальное название: The Fault in Our Stars
Год выпуска: 2014
Жанр: Драма, мелодрама
Выпущено: США, Temple Hill Entertainment
Режиссер: Джош Бун
В ролях: Шэйлин Вудли, Энсел Эльгорт, Лора Дерн, Сэм Трэммелл, Нат Вулф, Уиллем Дефо, Лотте Вербеек, Ана Дела Крус, Рэнди Ковиц. Тони Саладна

О фильме: Хэйзел больна раком. Несмотря на то, что болезнь временно отступила, девушка не чувствует ни капли радости. Она ходит в группу поддержки, где однажды знакомится с Августом Уотерсом и моментально влюбляется в него. Август и Хэйзел отправляются в полное страсти и жизни путешествие, которое лишний раз покажет им, что весь смысл жизни можно найти в любом ее отрезке.


Файл
Качество: BDRip 1080p
Формат: MKV
Видео: MPEG-4 AVC, 7777 Кбит/с, 1920x1036, 23.976 кадр/с
Аудио: Русский (AC3, 6 ch, 640 Кбит/с), (DTS, 6 ch, 1509 Кбит/с) английский (DTS, 6 ch, 1509 Кбит/с)
Продолжительность: 02:12:53
Перевод: Авторский одноголосый (А.Матвеев)
Субтитры: Английские

"x264"
x264 [info]: frame I:1627 Avg QP:14.99 size:296609
x264 [info]: frame P:39690 Avg QP:18.22 size: 88355
x264 [info]: frame B:149866 Avg QP:19.80 size: 25069
x264 [info]: consecutive B-frames: 1.4% 1.9% 2.9% 36.3% 12.6% 24.0% 8.6% 11.2% 0.6% 0.6%
x264 [info]: mb I I16..4: 7.7% 78.6% 13.7%
x264 [info]: mb P I16..4: 0.9% 8.0% 0.7% P16..4: 33.2% 38.0% 9.9% 3.0% 0.3% skip: 6.1%
x264 [info]: mb B I16..4: 0.1% 0.5% 0.0% B16..8: 39.8% 18.5% 2.1% direct: 3.8% skip:35.1% L0:44.8% L1:46.5% BI: 8.7%
x264 [info]: 8x8 transform intra:82.7% inter:59.1%
x264 [info]: direct mvs spatial:98.9% temporal:1.1%
x264 [info]: coded y,uvDC,uvAC intra: 89.2% 88.1% 68.6% inter: 24.3% 26.6% 11.9%
x264 [info]: i16 v,h,dc,p: 27% 9% 7% 57%
x264 [info]: i8 v,h,dc,ddl,ddr,vr,hd,vl,hu: 9% 8% 8% 10% 14% 13% 13% 13% 13%
x264 [info]: i4 v,h,dc,ddl,ddr,vr,hd,vl,hu: 12% 10% 8% 8% 14% 14% 12% 10% 11%
x264 [info]: i8c dc,h,v,p: 47% 18% 17% 18%
x264 [info]: Weighted P-Frames: Y:1.1% UV:0.6%
x264 [info]: ref P L0: 54.3% 8.8% 26.5% 10.1% 0.3% 0.0%
x264 [info]: ref B L0: 87.7% 10.1% 2.3%
x264 [info]: ref B L1: 93.5% 6.5%
x264 [info]: kb/s:7771.72
Свернуть

"Инфо-файл"
Общее
Уникальный идентификатор : 200735970922519111779363922232308140235 (0x9704577BB7BC1C5884C0A7BAF24408CB)
Полное имя : D:ЗагрузкиThe.Fault.In.Our.Stars.2014.Extended.x264.BDRip.(1080p).ExKinoRay.mkv
Формат : Matroska
Версия формата : Version 2
Размер файла : 10,6 Гбайт
Продолжительность : 2 ч. 12 м.
Общий поток : 11,4 Мбит/сек
Название фильма : Виноваты звезды.2014.Rip by: ollan
Дата кодирования : UTC 2014-08-31 13:59:07
Программа кодирования : mkvmerge v5.6.0 ('Kenya Kane') built on May 27 2012 16:44:04
Библиотека кодирования : libebml v1.2.3 + libmatroska v1.3.0

Видео
Идентификатор : 1
Формат : AVC
Формат/Информация : Advanced Video Codec
Профиль формата : High@L4.1
Параметр CABAC формата : Да
Параметр ReFrames формата : 4 кадра
Идентификатор кодека : V_MPEG4/ISO/AVC
Продолжительность : 2 ч. 12 м.
Битрейт : 7777 Кбит/сек
Ширина : 1920 пикселей
Высота : 1036 пикселей
Соотношение сторон : 1,85:1
Режим частоты кадров : Постоянный
Частота кадров : 23,976 кадра/сек
Цветовое пространство : YUV
Субдискретизация насыщенности : 4:2:0
Битовая глубина : 8 бит
Тип развёртки : Прогрессивная
Бит/(Пиксели*Кадры) : 0.163
Размер потока : 7,01 Гбайт (66%)
Библиотека кодирования : x264 core 125 r2200 999b753
Настройки программы : cabac=1 / ref=4 / deblock=1:-3:-3 / analyse=0x3:0x133 / me=umh / subme=11 / psy=1 / psy_rd=1.00:0.10 / mixed_ref=1 / me_range=32 / chroma_me=1 / trellis=2 / 8x8dct=1 / cqm=0 / deadzone=21,11 / fast_pskip=0 / chroma_qp_offset=-3 / threads=12 / lookahead_threads=2 / sliced_threads=0 / nr=0 / decimate=0 / interlaced=0 / bluray_compat=0 / constrained_intra=0 / bframes=9 / b_pyramid=2 / b_adapt=2 / b_bias=0 / direct=3 / weightb=1 / open_gop=0 / weightp=2 / keyint=240 / keyint_min=23 / scenecut=40 / intra_refresh=0 / rc_lookahead=40 / rc=2pass / mbtree=1 / bitrate=7777 / ratetol=1.0 / qcomp=0.60 / qpmin=0 / qpmax=69 / qpstep=4 / cplxblur=20.0 / qblur=0.5 / ip_ratio=1.40 / aq=1:1.00
Язык : English
Default : Да
Forced : Нет

Аудио #1
Идентификатор : 2
Формат : AC-3
Формат/Информация : Audio Coding 3
Расширение режима : CM (complete main)
Параметр Endianness формата : Big
Идентификатор кодека : A_AC3
Продолжительность : 2 ч. 12 м.
Вид битрейта : Постоянный
Битрейт : 640 Кбит/сек
Каналы : 6 каналов
Расположение каналов : Front: L C R, Side: L R, LFE
Частота : 48,0 КГц
Битовая глубина : 16 бит
Метод сжатия : С потерями
Размер потока : 608 Мбайт (6%)
Заголовок : Авторский одноголосый (А.Матвеев)
Язык : Russian
Default : Да
Forced : Нет

Аудио #2
Идентификатор : 3
Формат : DTS
Формат/Информация : Digital Theater Systems
Режим : 16
Параметр Endianness формата : Big
Идентификатор кодека : A_DTS
Продолжительность : 2 ч. 12 м.
Вид битрейта : Постоянный
Битрейт : 1509 Кбит/сек
Каналы : 6 каналов
Расположение каналов : Front: L C R, Side: L R, LFE
Частота : 48,0 КГц
Битовая глубина : 24 бит
Метод сжатия : С потерями
Размер потока : 1,40 Гбайт (13%)
Заголовок : Авторский одноголосый (А.Матвеев)
Язык : Russian
Default : Нет
Forced : Нет

Аудио #3
Идентификатор : 4
Формат : DTS
Формат/Информация : Digital Theater Systems
Режим : 16
Параметр Endianness формата : Big
Идентификатор кодека : A_DTS
Продолжительность : 2 ч. 12 м.
Вид битрейта : Постоянный
Битрейт : 1509 Кбит/сек
Каналы : 6 каналов
Расположение каналов : Front: L C R, Side: L R, LFE
Частота : 48,0 КГц
Битовая глубина : 24 бит
Метод сжатия : С потерями
Размер потока : 1,40 Гбайт (13%)
Язык : English
Default : Нет
Forced : Нет

Текст
Идентификатор : 5
Формат : UTF-8
Идентификатор кодека : S_TEXT/UTF8
Идентификатор кодека/Информация : UTF-8 Plain Text
Заголовок : SDH
Язык : English
Default : Нет
Forced : Нет

Меню
00:00:00.000 : en:Chapter 01
00:02:34.529 : en:Chapter 03
00:06:25.593 : en:Chapter 05
00:13:01.906 : en:Chapter 07
00:15:07.615 : en:Chapter 09
00:18:12.591 : en:Chapter 11
00:21:05.681 : en:Chapter 13
00:24:59.789 : en:Chapter 15
00:28:35.380 : en:Chapter 17
00:31:30.805 : en:Chapter 19
00:38:12.873 : en:Chapter 21
00:41:51.217 : en:Chapter 23
00:49:19.831 : en:Chapter 25
00:56:41.606 : en:Chapter 27
01:02:27.326 : en:Chapter 29
01:05:40.978 : en:Chapter 31
01:08:17.426 : en:Chapter 33
01:14:57.743 : en:Chapter 35
01:20:58.478 : en:Chapter 37
01:25:30.333 : en:Chapter 39
01:29:04.338 : en:Chapter 41
01:34:50.476 : en:Chapter 43
01:43:59.024 : en:Chapter 45
01:46:27.088 : en:Chapter 47
01:52:18.481 : en:Chapter 49
01:57:25.455 : en:Chapter 51
02:01:09.303 : en:Chapter 53
02:06:16.402 : en:Chapter 55
02:12:53.715 : en:Chapter 57
Свернуть

"Скриншоты"
ИзображениеИзображение
ИзображениеИзображение
ИзображениеИзображение
Свернуть

_________________
Не ищите меня в "ВКонтакте", в "Одноклассниках" меня нет - я на трекерах сижу!
Не в сети
Профиль  
 Добавлено: 2014-09-12 11:24 (спустя 9 дней)
Аватара пользователя
Стаж: 8 лет 3 месяца
Возраст: 27
Сообщений: 119
Лайков: 7
Перевод замечательный! Фильм потрясный, несмотря на заезженность сюжета, актерам и режиссеру удалось сделать этот фильм довольно необычным. :bra_vo: :bra_vo: :bra_vo:
Не в сети
Профиль  
 Добавлено: 2014-09-16 10:18 (спустя 3 дня)
Стаж: 7 лет 11 месяцев
Возраст: 35
Сообщений: 25
Спасибок: 55
одноголосый перевод может быть замечательным?
Не в сети
Профиль  
 Добавлено: 2014-09-16 16:14 (спустя 5 часов)
RG-ELEKTRO
Аватара пользователя
Стаж: 2 года 3 месяца
Сообщений: 7928
Спасибок: 53761
Лайков: 3304
Авторский - может :hi_hi_hi:
_________________
Не ищите меня в "ВКонтакте", в "Одноклассниках" меня нет - я на трекерах сижу!
Не в сети
Профиль  
Начать новую темуОтветить на тему  [ Сообщений: 4 ] 
Вы не можете начинать темы
Вы не можете отвечать на сообщения
Вы не можете редактировать свои сообщения
Вы не можете удалять свои сообщения