Правила форума

  • В этом разделе создание новых тем Запрещено.
  • Для создания новых тем пользуйтесь Корневым разделом DVD и HD фильмы.
Начать новую темуОтветить на тему  [ Сообщений: 3 ] 
Торрент файл
Размер: 3.63 GB • Зарегистрирован: 4 года 7 месяцев • Статус: Проверено
Скачан: 191 раз • Желающих скачать: 0 • Поблагодарили: 28 раз
 Раздают: 0  |  0 KB/s  ]   Качают: 0  |  0 KB/s  ] 
 Полного источника не было 1 год 2 месяца 
Сообщения
 Добавлено: 2012-04-10 15:47
Аватара пользователя
Стаж: 4 года 11 месяцев
Сообщений: 24
Спасибок: 357
Вышибала
Goon


«Схвати удачу за хвост!»

Изображение


Год выхода: 2011
Страна: США, Канада

Жанр: комедия, спорт
Продолжительность: 01:30:57
Перевод: Дублированное [лицензия]

Режиссер: Майкл Даус
Сценарий: Джей Барушель, Ивэн Голдберг, Адам Фраттасио
Продюсер: Джесси Шапира, Дон Кармоди, Йен Димерман
Оператор: Бобби Шор
Композитор: DJ Рэм

В ролях: Шонн Уильям Скотт, Джей Барушель, Элисон Пилл , Лив Шрайбер, Юджин Леви, Марк-Андре Гронден, Ким Коутс, Николас Кэмпбелл, Ричард Кларкин, Джонатан Черри

Описание: Даг — простой вышибала, работающий в провинциальном баре. Однажды, ввязавшись в драку на хоккейном матче с одним из игроков, он попадает в поле зрения тренера команды мастеров. Ему срочно нужен игрок, который сможет защитить на льду ведущего нападающего клуба. Даг не умеет стоять на коньках, но этому можно научиться, зато в драке ему нет равных! У команды-главного конкурента есть свой тафгай, Росс «Босс-Мать-Его» Риа, от одного вида которого дрожит вся хоккейная лига. Дагу и Россу предстоит сойтись в одном матче. Наш герой, с помощью своего друга, делает головокружительную карьеру, сплотив вокруг себя всю команду, и завоевывает любовь самой лучшей девушки на свете. С точки зрения Дага, конечно.

Изображение

Изображение

Качество BDRip 720p R5
Формат: Mkv

Видео: MPEG4 Video (H264) 1280x688 24.00fps
Аудио : DTS 48000Hz 6ch 1 510 Kbps

Изображение

MediaInfo
General
Unique ID : 252674770043417030688912430224888152051 (0xBE1763FD2AD91B49A14E326D3949BFF3)
Complete name : D:\Goon.2011.DVD_RG.BDRip.720p..mkv
Format : Matroska
Format version : Version 2
File size : 3.63 GiB
Duration : 1h 30mn
Overall bit rate : 5 709 Kbps
Movie name : Goon.2011.D.BDRip.720p.[uniongang.tv]
Encoded date : UTC 2012-04-10 02:10:59
Writing application : mkvmerge v5.3.0 ('I could have danced') built on Feb 9 2012 10:38:07
Writing library : libebml v1.2.3 + libmatroska v1.3.0

Video
ID : 1
Format : AVC
Format/Info : Advanced Video Codec
Format profile : High@L4.1
Format settings, CABAC : Yes
Format settings, ReFrames : 9 frames
Codec ID : V_MPEG4/ISO/AVC
Duration : 1h 30mn
Bit rate : 4 200 Kbps
Width : 1 280 pixels
Height : 688 pixels
Display aspect ratio : 1.860
Frame rate : 24.000 fps
Color space : YUV
Chroma subsampling : 4:2:0
Bit depth : 8 bits
Scan type : Progressive
Bits/(Pixel*Frame) : 0.199
Stream size : 2.60 GiB (72%)
Title : Goon.2011.D.BDRip.720p.[uniongang.tv]
Writing library : x264 core 119 r2106 07efeb4
Encoding settings : cabac=1 / ref=9 / deblock=1:-3:-3 / analyse=0x3:0x113 / me=umh / subme=11 / psy=1 / psy_rd=1.00:0.10 / mixed_ref=1 / me_range=32 / chroma_me=1 / trellis=2 / 8x8dct=1 / cqm=0 / deadzone=21,11 / fast_pskip=0 / chroma_qp_offset=-3 / threads=6 / sliced_threads=0 / nr=0 / decimate=1 / interlaced=0 / bluray_compat=0 / constrained_intra=0 / bframes=6 / b_pyramid=2 / b_adapt=2 / b_bias=0 / direct=3 / weightb=1 / open_gop=0 / weightp=2 / keyint=250 / keyint_min=23 / scenecut=40 / intra_refresh=0 / rc=2pass / mbtree=0 / bitrate=4200 / ratetol=1.0 / qcomp=0.60 / qpmin=0 / qpmax=69 / qpstep=4 / cplxblur=20.0 / qblur=0.5 / ip_ratio=1.40 / pb_ratio=1.30 / aq=1:1.00
Language : Russian
Default : Yes
Forced : No

Audio
ID : 2
Format : DTS
Format/Info : Digital Theater Systems
Codec ID : A_DTS
Duration : 1h 30mn
Bit rate mode : Constant
Bit rate : 1 510 Kbps
Channel(s) : 6 channels
Channel positions : Front: L C R, Side: L R, LFE
Sampling rate : 48.0 KHz
Bit depth : 24 bits
Compression mode : Lossy
Stream size : 982 MiB (26%)
Title : DTS-HD MA@2320 kb/s
Language : Russian
Default : Yes
Forced : No

Menu
00:00:00.000 : en:00:00:00.000
00:05:17.833 : en:00:05:17.833
00:08:41.125 : en:00:08:41.125
00:12:30.750 : en:00:12:30.750
00:15:07.583 : en:00:15:07.583
00:18:26.125 : en:00:18:26.125
00:21:46.625 : en:00:21:46.625
00:30:54.542 : en:00:30:54.542
00:41:11.250 : en:00:41:11.250
00:48:05.333 : en:00:48:05.333
00:50:52.042 : en:00:50:52.042
00:56:58.333 : en:00:56:58.333
01:02:53.042 : en:01:02:53.042
01:09:38.292 : en:01:09:38.292
01:14:10.875 : en:01:14:10.875
01:24:04.125 : en:01:24:04.125


Свернуть
Скриншоты
Изображение

Изображение

Изображение

Изображение

Изображение
Свернуть
Не в сети
Профиль  
 Добавлено: 2012-04-10 17:57 (спустя 2 часа 9 минут)
Аватара пользователя
Стаж: 8 лет 1 месяц
Сообщений: 67
Спасибок: 5
спасибо=)
Не в сети
Профиль  
 Добавлено: 2012-04-12 21:42 (спустя 2 дня 3 часа)
Аватара пользователя
Стаж: 7 лет 5 месяцев
Возраст: 29
Сообщений: 118
Спасибок: 3
Лайков: 2
:co_ol: фильм зачет!
Не в сети
Профиль  
Начать новую темуОтветить на тему  [ Сообщений: 3 ] 
Вы не можете начинать темы
Вы не можете отвечать на сообщения
Вы не можете редактировать свои сообщения
Вы не можете удалять свои сообщения