Правила форума

  • В этом разделе создание новых тем Запрещено.
  • Для создания новых тем пользуйтесь Корневым разделом DVD и HD фильмы.
Начать новую темуОтветить на тему  [ 1 сообщение ] 
Торрент файл
Размер: 5.45 GB • Зарегистрирован: 1 год 1 месяц • Статус: Проверено
Скачан: 8 раз • Желающих скачать: 0 • Поблагодарили: 0 раз
 Раздают: 0  |  0 KB/s  ]   Качают: 0  |  0 KB/s  ] 
 Полного источника не было 9 часов 
Сообщения
 Добавлено: 2015-10-25 19:08
RG-ELEKTRO
Аватара пользователя
Стаж: 2 года 3 месяца
Сообщений: 7928
Спасибок: 53783
Лайков: 3304
Высокая мода / Prêt-à-Porter



Изображение


Год выпуска: 1994
Страна: США (Etalon film, Miramax Films)
Жанр: драма, комедия
Продолжительность: 02:12:39
Перевод: Профессиональный (многоголосый закадровый) + Оригинальная звуковая дорожка

Режиссёр: Роберт Олтмен
Сценарист: Роберт Олтмен, Барбара Шулгассер
Продюсер: Роберт Олтмен, Скотт Бушнелл, Йен Джессел
Оператор: Жан Лепин, Пьер Миньо
Композитор: Мишель Легран
В ролях: Марчелло Мастроянни, Софи Лорен, Анук Эме, Ким Бейсингер, Жан-Пьер Кассель, Джулия Робертс, Тим Роббинс, Руперт Эверетт, Лорен Бэколл, Лайл Ловетт, Кьяра Мастроянни, Стивен Ри, Росси де Пальма, Джорджанна Робертсон, Лили Тейлор, Уте Лемпер, Форест Уитакер, Ричард Э. Грант, Трейси Ульман, Салли Келлерман, Линда Хант, Тери Гарр, Дэнни Айелло, Жан Рошфор, Мишель Блан, Бьорк
Описание: Неделя высокой моды в Париже! Феерия страстей. На подиуме, а еще больше — вне его! В калейдоскопе звезд в безумии шныряют репортеры. Одна из них — настойчивая Китти Поттер. Ее задача — ничего не упустить. Здесь масса сплетен, недоразумений и интриг!

Такие люди сразу в одном месте: актеры, модницы, миллионеры! Тусовщики и воротилы всех мастей. Вот беглый русский, вплавь добравшийся до места. Он у цели! Другим не так везет: Джо Флинн и Энн попали в передрягу, нескоро выберутся в свет. Неудивительно: в таком сумбуре теряешь честь и голову, достоинство и. .. вещи. Дань моде? До изнеможения! Се ля ви…
Мировая премьера: 23 декабря 1994
Премьера в России: 21 февраля 2002, «West Video»
Кассовые сборы: $11 300 653

Изображение Изображение
Качество: BDRip 720p
Формат: MKV
Видео кодек: MPEG-4 AVC
Аудио кодек: AC3
Видео: MPEG-4 AVC, 1280x544, 5000 kbps, 23,976 fps
Аудио #1: AC3, 6 ch, 448 kbps, 48,0 КГц [Профессиональный (многоголосый закадровый)]
Аудио #2: AC3, 6 ch, 448 kbps, 48,0 КГц - английский [Оригинальная звуковая дорожка]

"MI"
General
Unique ID : 232823552657448793152592034862852132977 (0xAF282F681918964991A3AA1557F2D071)
Complete name : D:\фильмы\Pret-a-Porter_1994.BDRip720p.mkv
Format : Matroska
Format version : Version 4 / Version 2
File size : 5.45 GiB
Duration : 2h 12mn
Overall bit rate : 5 884 Kbps
Encoded date : UTC 2015-10-25 12:23:20
Writing application : mkvmerge v7.5.0 ('Glass Culture') 64bit built on Jan 4 2015 16:48:44
Writing library : libebml v1.3.1 + libmatroska v1.4.2

Video
ID : 1
Format : AVC
Format/Info : Advanced Video Codec
Format profile : High@L4.1
Format settings, CABAC : Yes
Format settings, ReFrames : 10 frames
Codec ID : V_MPEG4/ISO/AVC
Duration : 2h 12mn
Bit rate : 5 000 Kbps
Width : 1 280 pixels
Height : 544 pixels
Display aspect ratio : 2.35:1
Frame rate mode : Constant
Frame rate : 23.976 fps
Color space : YUV
Chroma subsampling : 4:2:0
Bit depth : 8 bits
Scan type : Progressive
Bits/(Pixel*Frame) : 0.299
Stream size : 4.51 GiB (83%)
Writing library : x264 core 125 r2200 999b753
Encoding settings : cabac=1 / ref=11 / deblock=1:-3:-3 / analyse=0x3:0x133 / me=umh / subme=10 / psy=1 / psy_rd=1.00:0.00 / mixed_ref=1 / me_range=32 / chroma_me=1 / trellis=2 / 8x8dct=1 / cqm=0 / deadzone=21,11 / fast_pskip=1 / chroma_qp_offset=-2 / threads=12 / lookahead_threads=2 / sliced_threads=0 / nr=0 / decimate=1 / interlaced=0 / bluray_compat=0 / constrained_intra=0 / bframes=10 / b_pyramid=1 / b_adapt=2 / b_bias=0 / direct=3 / weightb=1 / open_gop=0 / weightp=2 / keyint=240 / keyint_min=23 / scenecut=40 / intra_refresh=0 / rc_lookahead=120 / rc=abr / mbtree=1 / bitrate=5000 / ratetol=1.0 / qcomp=0.60 / qpmin=0 / qpmax=69 / qpstep=4 / ip_ratio=1.40 / aq=1:1.00
Language : English
Default : Yes
Forced : No

Audio #1
ID : 2
Format : AC-3
Format/Info : Audio Coding 3
Mode extension : CM (complete main)
Format settings, Endianness : Big
Codec ID : A_AC3
Duration : 2h 12mn
Bit rate mode : Constant
Bit rate : 448 Kbps
Channel(s) : 6 channels
Channel positions : Front: L C R, Side: L R, LFE
Sampling rate : 48.0 KHz
Bit depth : 16 bits
Compression mode : Lossy
Delay relative to video : 850ms
Stream size : 425 MiB (8%)
Language : Russian
Default : Yes
Forced : No

Audio #2
ID : 3
Format : AC-3
Format/Info : Audio Coding 3
Mode extension : CM (complete main)
Format settings, Endianness : Big
Codec ID : A_AC3
Duration : 2h 12mn
Bit rate mode : Constant
Bit rate : 448 Kbps
Channel(s) : 6 channels
Channel positions : Front: L C R, Side: L R, LFE
Sampling rate : 48.0 KHz
Bit depth : 16 bits
Compression mode : Lossy
Stream size : 425 MiB (8%)
Language : English
Default : No
Forced : No

Свернуть

Скриншоты
Изображение
Изображение
Изображение
Изображение
Изображение
Изображение
Свернуть
Изображение


Изображение Изображение
Не в сети
Профиль  
Начать новую темуОтветить на тему  [ 1 сообщение ] 
Вы не можете начинать темы
Вы не можете отвечать на сообщения
Вы не можете редактировать свои сообщения
Вы не можете удалять свои сообщения