Правила форума

  • В этом разделе создание новых тем Запрещено.
  • Для создания новых тем пользуйтесь Корневым разделом DVD и HD фильмы.
Начать новую темуОтветить на тему  [ Сообщений: 3 ] 
Торрент файл
Размер: 2.86 GB • Зарегистрирован: 3 года 10 месяцев • Статус: Проверено
Скачан: 13 раз • Желающих скачать: 0 • Поблагодарили: 4 раза
 Раздают: 0  |  0 KB/s  ]   Качают: 0  |  0 KB/s  ] 
 Полного источника не было 1 год 3 месяца 
Сообщения
 Добавлено: 2013-02-05 08:39
Аватара пользователя
Стаж: 8 лет 4 месяца
Сообщений: 100
Спасибок: 1653
Высокий блондин в черном ботинке / Le grand blond avec une chaussure noire

Изображение


Год выпуска: 1972
Страна: Франция
Жанр: Комедия
Продолжительность: 01:29:19
Версия фильма: Unrated / Полная версия
Перевод: Профессиональный (двухголосый закадровый) + Профессиональный (дубляж) + Оригинальная звуковая дорожка
Субтитры: Нет

Режиссёр: Ив Робер
В ролях: Пьер Ришар, Мирей Дарк, Бернар Блие, Жан Рошфор, Жан Карме, Ив Робер, Поль Ле Персон, Роже Кашиа, Жан Об, Робер Кастель, Колетт Кастель, Морис Барье, Жан Содрэ
Описание: Полковник Тулуз (Жан Рошфор) - глава секретной службы, желает избавиться от своего заместителя Милана. В этом ему помогает, случайно выбранный человек, высокий блондин в черном ботинке - скрипач-виртуоз Франсуа Перрен (Пьер Ришар), человек невообразимо рассеяный и попадающий в комичные и курьезные ситуации, которого принимают за секретного суперагента и устанавливают за ним слежку. Но высокий блондин оказывается крепким орешком. Он с легкостью избегает всех опасностей, даже не подозревая о них.
Доп.информация: К сожалению это очень похоже на апскейлинг. Кто не знает что такое апскейлинг вам сюда http://ru.wikipedia.org/wiki/%C0%EF%F1% ... B%E8%ED%E3.
Рейтинг MPAA: Рейтинг PG (Детям рекомендуется смотреть фильм с родителями)
Изображение 7.738 (8792)
Изображение 7.20 (3 059)

Качество: WEB-DL 720p
Формат: MKV
Видео кодек: MPEG-4 AVC
Аудио кодек: AC3 (Dolby Digital)
Видео: MPEG-4 AVC, 4000 Кбит/с, 1208x720, 24 fps
Аудио #1: Russian: 48 kHz, AC3, 2/0 (L,R) ch, ~192.00 kbps avg [Двухголосый закадровый, НТВ+]
Аудио #2: Russian: 48 kHz, AC3, 2/0 (L,R) ch, ~192.00 kbps avg [Профессиональный (дубляж)]
Аудио #3: French: 48 kHz, AAC, 2/0 (L,R) ch, ~160.00 kbps avg [Оригинальная звуковая дорожка]
Субтитры: Нет
Скриншоты
Изображение
Изображение
Изображение
Изображение
Изображение
Изображение
Свернуть


Технические данные
General
Unique ID : 230671694868971591818657805823444415465 (0xAD89C0A05F09031FBFD28D36E17E73E9)
Complete name : C:\GIA\Le Grand blond avec une chaussure noire 720p WEB-DL.mkv
Format : Matroska
Format version : Version 4 / Version 2
File size : 2.86 GiB
Duration : 1h 29mn
Overall bit rate : 4 588 Kbps
Movie name : Le Grand blond avec une chaussure noire (1973)
Encoded date : UTC 2010-02-22 21:41:31
Writing application : mkvmerge v5.9.0 ('On The Loose') built on Dec 9 2012 15:37:01
Writing library : libebml v1.3.0 + libmatroska v1.4.0

Video
ID : 1
Format : AVC
Format/Info : Advanced Video Codec
Format profile : High@L3.1
Format settings, CABAC : No
Format settings, ReFrames : 2 frames
Codec ID : V_MPEG4/ISO/AVC
Duration : 1h 29mn
Width : 1 208 pixels
Height : 720 pixels
Display aspect ratio : 1.678
Frame rate mode : Constant
Frame rate : 24.000 fps
Color space : YUV
Chroma subsampling : 4:2:0
Bit depth : 8 bits
Scan type : Progressive
Title : Release by xamster for HDCLUB
Language : French
Default : Yes
Forced : No
Color primaries : BT.709
Transfer characteristics : BT.709
Matrix coefficients : BT.709

Audio #1
ID : 2
Format : AC-3
Format/Info : Audio Coding 3
Format profile : Dolby Digital
Mode extension : CM (complete main)
Format settings, Endianness : Big
Codec ID : A_AC3
Duration : 1h 29mn
Bit rate mode : Constant
Bit rate : 192 Kbps
Channel(s) : 2 channels
Channel positions : Front: L R
Sampling rate : 48.0 KHz
Bit depth : 16 bits
Compression mode : Lossy
Stream size : 123 MiB (4%)
Title : AC3 48kHz 2.0 192 kbps DVO HTB+
Language : Russian
Default : Yes
Forced : No

Audio #2
ID : 3
Format : AC-3
Format/Info : Audio Coding 3
Format profile : Dolby Digital
Mode extension : CM (complete main)
Format settings, Endianness : Big
Codec ID : A_AC3
Duration : 1h 29mn
Bit rate mode : Constant
Bit rate : 192 Kbps
Channel(s) : 2 channels
Channel positions : Front: L R
Sampling rate : 48.0 KHz
Bit depth : 16 bits
Compression mode : Lossy
Stream size : 123 MiB (4%)
Title : AC3 48kHz 2.0 192 kbps Dub
Language : Russian
Default : No
Forced : No

Audio #3
ID : 4
Format : AAC
Format/Info : Advanced Audio Codec
Format profile : LC
Codec ID : A_AAC
Duration : 1h 29mn
Channel(s) : 2 channels
Channel positions : Front: L R
Sampling rate : 48.0 KHz
Compression mode : Lossy
Title : AAC 2.0 VBR Original
Language : French
Default : No
Forced : No

Menu
00:00:00.000 : en:GГ©nГ©rique de dГ©but
00:02:24.000 : en:Une casserole aux fesses
00:06:59.000 : en:un piГЁge Г  cons
00:11:51.000 : en:Le grand blond avec une chaussure noire
00:16:07.000 : en:François Perrin
00:18:30.000 : en:Sous surveillance
00:27:11.000 : en:une vie sans histoire
00:29:17.000 : en:Le Gugusse
00:33:09.000 : en:Paulette
00:37:52.000 : en:Maurice
00:41:53.000 : en:Paulette me trompe avec un cheval
00:46:15.000 : en:La carte MaГ®tresse de Milan
00:49:08.000 : en:Mozart MassacrГ©
00:52:18.000 : en:La robe
00:56:01.000 : en:Il est trГ©s fort
01:05:09.000 : en:Le secret de Perrin
01:07:57.000 : en:Liquidez Le !
01:12:22.000 : en:RГЁglement de compte
01:16:17.000 : en:Maurice a des visions
01:21:57.000 : en:Milan entre en scГЁne
01:25:34.000 : en:Il se débrouille pas si mal, ce garçon
01:28:08.000 : en:GГ©nГ©rique de fin
Свернуть

Знаете ли Вы, что...
Так как в советское время многие фильмы нещадно кромсались цензорами, то некоторый эпизоды русского дубляжа переведены многоголосым переводом.
Свернуть
_________________
Входи тихо, проси мало, говори кратко, уходи быстро...


Последний раз редактировалось admwtpg 2013-02-05 09:06, всего редактировалось 1 раз.
Не в сети
Профиль  
 Добавлено: 2013-02-05 08:57 (спустя 18 минут)
Модератор
Аватара пользователя
Стаж: 8 лет 11 месяцев
Сообщений: 516
Спасибок: 26888
Лайков: 1
Для DVD и HD-разделов необходимы развернутые технические данные:
Для HD: Отчет BDInfo→ (после нажатия кнопки «scan bitrates» и окончания сканирования) или MediaInfo→ ( весь текст из режима view (вид) → text (текст).) (под спойлером)
Не в сети
Профиль  
 Добавлено: 2013-02-05 09:09 (спустя 11 минут)
Аватара пользователя
Стаж: 8 лет 4 месяца
Сообщений: 100
Спасибок: 1653
+
_________________
Входи тихо, проси мало, говори кратко, уходи быстро...
Не в сети
Профиль  
Начать новую темуОтветить на тему  [ Сообщений: 3 ] 
Вы не можете начинать темы
Вы не можете отвечать на сообщения
Вы не можете редактировать свои сообщения
Вы не можете удалять свои сообщения