Правила форума

  • В этом разделе создание новых тем Запрещено.
  • Для создания новых тем пользуйтесь Корневым разделом DVD и HD фильмы.
Начать новую темуОтветить на тему  [ Сообщений: 3 ] 
Торрент файл
Размер: 3.98 GB • Зарегистрирован: 3 года 3 месяца • Статус: T Временный релиз
Скачан: 66 раз • Желающих скачать: 0 • Поблагодарили: 18 раз
 Раздают: 0  |  0 KB/s  ]   Качают: 0  |  0 KB/s  ] 
 Полного источника не было 6 часов 
Сообщения
 Добавлено: 2013-08-08 19:59
Руководитель релиз-группы
Аватара пользователя
Стаж: 7 лет 2 месяца
Возраст: 4
Сообщений: 5213
Спасибок: 19350
Лайков: 2312
Название: Византия
Оригинальное название: Byzantium
Изображение

Год выхода: 2012
Жанр: фэнтези, триллер, драма
Режиссер: Нил Джордан
В ролях: Сирша Ронан, Джемма Артертон, Бэрри Кессин, Дэвид Хип, Уоррен Браун, Руби Снейп, Туре Линдхардт, Дженни Кэвэна, Гленн Доэрти, Эдита Будник
О фильме:
История партнёрства вампиров — матери и дочери, которые выдают себя за сестёр.
Выпущено: Великобритания, США, Ирландия / Demarest Films, Lip Sync Productions, Number 9 Films, Parallel Film Productions Ltd, WestEnd Films
Продолжительность: 01:58:07
Озвучивание: Любительское (одноголосое) [datynet]
Формат: MKV
Качество: WEB-DL 720p
Видео: 4152 Kb/s, 1280x544
Аудио: Russian: MP3, 192 Kb/s (2 ch), English: AC3, 384 Kb/s (6 ch)
Субтитры: Russian, English
Размер: 3.98 Gb
Дополнительно: Навигация по главам.
Скриншоты
Изображение
Изображение
Изображение
Свернуть
MI
Общее
Уникальный идентификатор : 219624111280464530622029897215194834613 (0xA53A10B3BAA4F7378C81B876C7AE26B5)
Полное имя : D:\Reliz\Vizantija.2012.WEB-DL.720p.H.264-ELiTE.mkv
Формат : Matroska
Версия формата : Version 4 / Version 2
Размер файла : 3,98 Гбайт
Продолжительность : 1 ч. 58 м.
Общий поток : 4824 Кбит/сек
Дата кодирования : UTC 2013-08-07 17:06:31
Программа кодирования : mkvmerge v6.3.0 ('You can't stop me!') built on Jun 28 2013 20:09:41
Библиотека кодирования : libebml v1.3.0 + libmatroska v1.4.0

Видео
Идентификатор : 1
Формат : AVC
Формат/Информация : Advanced Video Codec
Профиль формата : Main@L3.1
Параметр CABAC формата : Нет
Параметр ReFrames формата : 2 кадра
Идентификатор кодека : V_MPEG4/ISO/AVC
Продолжительность : 1 ч. 58 м.
Битрейт : 4152 Кбит/сек
Ширина : 1280 пикселей
Высота : 544 пикселя
Соотношение сторон : 2,35:1
Режим частоты кадров : Постоянный
Частота кадров : 24,000 кадра/сек
Цветовое пространство : YUV
Субдискретизация насыщенности : 4:2:0
Битовая глубина : 8 бит
Тип развёртки : Прогрессивная
Бит/(Пиксели*Кадры) : 0.248
Размер потока : 3,43 Гбайт (86%)
Заголовок : ..:: TEAM ELiTE ::..
Язык : English
Default : Да
Forced : Нет
Основные цвета : BT.709
Характеристики трансфера : BT.709
Коэффициенты матрицы : BT.709

Аудио #1
Идентификатор : 2
Формат : MPEG Audio
Версия формата : Version 1
Профиль формата : Layer 3
Идентификатор кодека : A_MPEG/L3
Идентификатор кодека/Подсказка : MP3
Продолжительность : 1 ч. 58 м.
Вид битрейта : Постоянный
Битрейт : 192 Кбит/сек
Каналы : 2 канала
Частота : 44,1 КГц
Метод сжатия : С потерями
Размер потока : 162 Мбайт (4%)
Заголовок : datynet
Язык : Russian
Default : Да
Forced : Нет

Аудио #2
Идентификатор : 3
Формат : AC-3
Формат/Информация : Audio Coding 3
Расширение режима : CM (complete main)
Параметр Endianness формата : Big
Идентификатор кодека : A_AC3
Продолжительность : 1 ч. 58 м.
Вид битрейта : Постоянный
Битрейт : 384 Кбит/сек
Каналы : 6 каналов
Расположение каналов : Front: L C R, Side: L R, LFE
Частота : 48,0 КГц
Битовая глубина : 16 бит
Метод сжатия : С потерями
Размер потока : 324 Мбайт (8%)
Язык : English
Default : Нет
Forced : Нет

Текст #1
Идентификатор : 4
Формат : UTF-8
Идентификатор кодека : S_TEXT/UTF8
Идентификатор кодека/Информация : UTF-8 Plain Text
Язык : Russian
Default : Да
Forced : Нет

Текст #2
Идентификатор : 5
Формат : UTF-8
Идентификатор кодека : S_TEXT/UTF8
Идентификатор кодека/Информация : UTF-8 Plain Text
Язык : English
Default : Нет
Forced : Нет

Меню
00:00:00.000 : en:Chapter 1
00:11:01.000 : en:Chapter 2
00:20:26.000 : en:Chapter 3
00:28:46.000 : en:Chapter 4
00:41:27.000 : en:Chapter 5
00:50:05.000 : en:Chapter 6
01:00:45.000 : en:Chapter 7
01:10:14.000 : en:Chapter 8
01:20:52.000 : en:Chapter 9
01:31:34.000 : en:Chapter 10
01:40:58.000 : en:Chapter 11
01:53:35.000 : en:Chapter 12
Свернуть
_________________
Изображение

Изображение


Последний раз редактировалось zima-letoru 2013-08-09 15:39, всего редактировалось 2 раз(а).
 di-ys1 и rotametr нравится это.
Не в сети
Профиль  
 Добавлено: 2013-08-09 15:25 (спустя 19 часов)
Модератор
Аватара пользователя
Стаж: 8 лет 11 месяцев
Сообщений: 516
Спасибок: 26888
Лайков: 1
Внимание: Для DVD и HD-разделов необходимы развернутые технические данные:
Для HD: Отчет MediaInfo или BDInfo (под спойлером)
Скрины поправьте.
Не в сети
Профиль  
 Добавлено: 2013-08-11 11:18 (спустя 1 день 19 часов)
Стаж: 4 года 3 месяца
Сообщений: 10
Воспроизводит первые 3 минуты, дальше обрыв. Не качайте! :( :( :(
Не в сети
Профиль  
Начать новую темуОтветить на тему  [ Сообщений: 3 ] 
Вы не можете начинать темы
Вы не можете отвечать на сообщения
Вы не можете редактировать свои сообщения
Вы не можете удалять свои сообщения