Правила форума

  • В этом разделе создание новых тем Запрещено.
  • Для создания новых тем пользуйтесь Корневым разделом DVD и HD фильмы.
Начать новую темуОтветить на тему  [ 1 сообщение ] 
Торрент файл
Размер: 11.1 GB • Зарегистрирован: 4 года 7 месяцев • Статус: Проверено
Скачан: 6 раз • Желающих скачать: 0 • Поблагодарили: 4 раза
 Раздают: 0  |  0 KB/s  ]   Качают: 0  |  0 KB/s  ] 
 Полного источника не было 3 года 2 месяца 
Сообщения
 Добавлено: 2012-04-13 16:14
Модератор релиз-группы
Аватара пользователя
Стаж: 9 лет 1 месяц
Возраст: 97
Сообщений: 11659
Спасибок: 6530
Лайков: 269
Вызов / Set It Off

Изображение


Год выпуска: 1995
Страна: США
Жанр: Триллер, драма, криминал
Продолжительность: 02:03:00
Перевод: Профессиональный (двухголосый закадровый)
Оригинальная звуковая дорожка
Субтитры: Английские, русские

Режиссёр: Ф. Гэри Грей
В ролях: Джада Пинкетт Смит, Куин Латифа, Вивика А. Фокс, Кимберли Элиз, Джон К. МакГинли, Блэр Андервуд, Винсент Баумм, Ван Баумм, Чаз Ламар Шеперд, Томас Джеффресон Берд
Описание: Живут в негритянском квартале Лос-Анджелеса четыре подруги - молодые женщины: Стоуни, Франческа , Тити и Клеопатра. Одна теряет работу в банке, у второй убивают брата, третья лишается ребенка, а четвертая давно поставила крест на своей жизни. Несправедливость и нищета заставляют их бросить вызов системе, делающей из людей рабов. Они берутся за оружие и начинают грабить банки. Раз-другой у них все проходит гладко, но их подставляет их же «чернокожий брат», укравший награбленные ими деньги. И тогда они решают «сделать это в последний раз».
Изображение

Качество: BDRip 1080p
Формат: mkv
Видео кодек: MPEG-4
Аудио кодек: AC3 (Dolby Digital)
Видео: MPEG-4 AVC, 12.0 Мбит/с, 1920x800
Аудио #1: AC3, 2 ch, 192 Кбит/с [Профессиональный (двухголосый закадровый)]
Аудио #2: AC3, 6 ch, 640 Кбит/с [Оригинальная звуковая дорожка]
Субтитры: Английские, русские
Скриншоты
Изображение

Изображение

Изображение


Свернуть
Mi
Format : Matroska
Format version : Version 2
File size : 11.1 GiB
Duration : 2h 3mn
Overall bit rate : 12.8 Mbps
Encoded date : UTC 2012-04-11 19:14:14
Writing application : mkvmerge v5.3.0 ('I could have danced') built on Feb 9 2012 10:38:07
Writing library : libebml v1.2.3 + libmatroska v1.3.0

Video
ID : 1
Format : AVC
Format/Info : Advanced Video Codec
Format profile : High@L4.1
Format settings, CABAC : Yes
Format settings, ReFrames : 5 frames
Muxing mode : Header stripping
Codec ID : V_MPEG4/ISO/AVC
Duration : 2h 3mn
Bit rate : 12.0 Mbps
Width : 1 920 pixels
Height : 800 pixels
Display aspect ratio : 2.40:1
Original display aspect ratio : 2.40:1
Frame rate : 23.976 fps
Color space : YUV
Chroma subsampling : 4:2:0
Bit depth : 8 bits
Scan type : Progressive
Bits/(Pixel*Frame) : 0.326
Stream size : 10.2 GiB (92%)
Writing library : x264 core 75 r1251 e553a4c
Encoding settings : cabac=1 / ref=5 / deblock=1:-1:-1 / analyse=0x3:0x113 / me=umh / subme=9 / psy=1 / psy_rd=1.0:0.0 / mixed_ref=1 / me_range=16 / chroma_me=1 / trellis=1 / 8x8dct=1 / cqm=0 / deadzone=21,11 / chroma_qp_offset=-2 / threads=6 / nr=0 / decimate=1 / mbaff=0 / bframes=3 / b_pyramid=0 / b_adapt=1 / b_bias=0 / direct=3 / wpredb=1 / keyint=250 / keyint_min=25 / scenecut=40 / rc_lookahead=40 / rc=2pass / mbtree=1 / bitrate=11991 / ratetol=1.0 / qcomp=0.60 / qpmin=10 / qpmax=51 / qpstep=4 / cplxblur=20.0 / qblur=0.5 / ip_ratio=1.40 / aq=1:1.10
Language : English
Default : Yes
Forced : No

Audio #1
ID : 2
Format : AC-3
Format/Info : Audio Coding 3
Mode extension : CM (complete main)
Muxing mode : Header stripping
Codec ID : A_AC3
Duration : 2h 3mn
Bit rate mode : Constant
Bit rate : 192 Kbps
Channel(s) : 2 channels
Channel positions : Front: L R
Sampling rate : 48.0 KHz
Bit depth : 16 bits
Compression mode : Lossy
Stream size : 170 MiB (1%)
Title : Russian
Language : Russian
Default : Yes
Forced : Yes

Audio #2
ID : 3
Format : AC-3
Format/Info : Audio Coding 3
Mode extension : CM (complete main)
Muxing mode : Header stripping
Codec ID : A_AC3
Duration : 2h 3mn
Bit rate mode : Constant
Bit rate : 640 Kbps
Channel(s) : 6 channels
Channel positions : Front: L C R, Side: L R, LFE
Sampling rate : 48.0 KHz
Bit depth : 16 bits
Compression mode : Lossy
Stream size : 567 MiB (5%)
Language : English
Default : No
Forced : No

Text #1
ID : 4
Format : UTF-8
Codec ID : S_TEXT/UTF8
Codec ID/Info : UTF-8 Plain Text
Default : No
Forced : No

Text #2
ID : 5
Format : UTF-8
Codec ID : S_TEXT/UTF8
Codec ID/Info : UTF-8 Plain Text
Language : English
Default : Yes
Forced : No

Свернуть
Не в сети
Профиль  
Начать новую темуОтветить на тему  [ 1 сообщение ] 
Вы не можете начинать темы
Вы не можете отвечать на сообщения
Вы не можете редактировать свои сообщения
Вы не можете удалять свои сообщения
cron