Правила форума

  • В этом разделе создание новых тем Запрещено.
  • Для создания новых тем пользуйтесь Корневым разделом DVD и HD фильмы.
Начать новую темуОтветить на тему  [ Сообщений: 21 ] 
Торрент файл
Размер: 222.4 GB • Зарегистрирован: 5 лет 4 месяца • Статус: Проверено
Скачан: 71 раз • Желающих скачать: 0 • Поблагодарили: 56 раз
 Раздают: 0  |  0 KB/s  ]   Качают: 0  |  0 KB/s  ] 
 Полного источника не было 1 час 45 минут 
Сообщения
 Добавлено: 2011-07-26 14:37
Top-releaser
Аватара пользователя
Стаж: 7 лет 8 месяцев
Возраст: 104
Сообщений: 23302
Спасибок: 61372
Лайков: 17
Изображение

Релиз:Изображение
Раздача группы:Изображение

Изображение

Страна: США, Новая Зеландия
Год выпуска: 2001
Продолжительность: 01:45:43 + 02:02:34
Постер
Изображение
Свернуть
Перевод: Дубляж (со вставками MVO "Позитив-мультимедиа"), закадровый многоголосый (2 шт.)
Cубтитры: русские
Режиссер: Питер Джексон / Peter Jackson
В ролях: Элайджа Вуд, Шон Эстин, Вигго Мортенсен, Иэн МакКеллен, Доминик Монахэн, Билли Бойд, Шон Бин, Орландо Блум, Джон Рис-Дэвис, Кристофер Ли

Описание: Сказания о Средиземье — это хроника Великой войны за Кольцо, войны, длившейся не одну тысячу лет. Тот, кто владел Кольцом, получал власть над всеми живыми тварями, но был обязан служить злу. Тихая деревня, где живут хоббиты. Волшебник Гэндальф, придя на 111-й день рождения к своему старому другу Бильбо Бэггинсу, начинает вести разговор о кольце, которое Бильбо нашел много лет назад. Это кольцо принадлежало когда-то темному властителю Средиземья Саурону, и оно дает большую власть своему обладателю. Теперь Саурон хочет вернуть себе власть над Средиземьем. Бильбо отдает найденное кольцо своему племяннику Фродо, который пытается научиться справляться с тем страшным могуществом, которое дает ему кольцо...
Тип релиза: Blu-ray disc (custom)
Контейнер: BDMV
Видео:
Disc1 1920х1080p / 23,976 fps / 16:9 / High Profile 4.1 / 29857 kbps
Disc2 1920х1080p / 23,976 fps / 16:9 / High Profile 4.1/ 29855 kbps

Аудио:
Disc1
DTS-HD Master Audio English 4718 kbps 6.1 / 48 kHz / 4718 kbps / 24-bit (DTS Core: 6.1-ES / 48 kHz / 1509 kbps / 24-bit)
DTS-HD Master Audio Russian 4761 kbps 6.1 / 48 kHz / 4761 kbps / 24-bit (DTS Core: 6.1-ES / 48 kHz / 1509 kbps / 24-bit) (MVO - Superbit)
Dolby Digital Audio Russian 448 kbps 5.1 / 48 kHz / 448 kbps / DN -4dB (Дубляж)
Dolby Digital EX Audio Russian 448 kbps 5.1-EX / 48 kHz / 448 kbps / DN -4dB (MVO - Позитив)
Dolby Digital Audio English 192 kbps 2.0 / 48 kHz / 192 kbps / DN -4dB / Dolby Surround
Dolby Digital Audio English 192 kbps 2.0 / 48 kHz / 192 kbps / DN -4dB / Dolby Surround
Dolby Digital Audio English 192 kbps 2.0 / 48 kHz / 192 kbps / DN -4dB / Dolby Surround
Dolby Digital Audio English 192 kbps 2.0 / 48 kHz / 192 kbps / DN -4dB / Dolby Surround

Disc2
DTS-HD Master Audio English 2393 kbps 6.1 / 48 kHz / 2393 kbps / 16-bit (DTS Core: 6.1-ES / 48 kHz / 1509 kbps / 16-bit)
DTS-HD Master Audio Russian 4790 kbps 6.1 / 48 kHz / 4790 kbps / 24-bit (DTS Core: 6.1-ES / 48 kHz / 1509 kbps / 24-bit) (MVO - Superbit)
Dolby Digital Audio Russian 448 kbps 5.1 / 48 kHz / 448 kbps / DN -4dB (Дубляж)
Dolby Digital EX Audio Russian 448 kbps 5.1-EX / 48 kHz / 448 kbps / DN -4dB (MVO - Позитив)
Dolby Digital Audio English 192 kbps 2.0 / 48 kHz / 192 kbps / DN -4dB / Dolby Surround
Dolby Digital Audio English 192 kbps 2.0 / 48 kHz / 192 kbps / DN -4dB / Dolby Surround
Dolby Digital Audio English 192 kbps 2.0 / 48 kHz / 192 kbps / DN -4dB / Dolby Surround
Dolby Digital Audio English 192 kbps 2.0 / 48 kHz / 192 kbps / DN -4dB / Dolby Surround

Свернуть
Субтитры: English, Chinese, Czech, Hebrew, Korean, Polish, Russian (Позитив), Russian (от фанов фильма), Russian (Эльфийская речь)
Скриншоты:
Изображение
Изображение
Изображение
Изображение
Свернуть
BDInfo Disc 1-1
DISC INFO:

Disc Title: DISC1
Disc Size: 35 120 849 581 bytes
Protection: AACS
BD-Java: Yes
BDInfo: 0.5.6

PLAYLIST REPORT:

Name: 00100.MPLS
Length: 1:45:43 (h:m:s)
Size: 34 728 480 768 bytes
Total Bitrate: 43,80 Mbps

VIDEO:

Codec Bitrate Description
----- ------- -----------
MPEG-4 AVC Video 29857 kbps 1080p / 23,976 fps / 16:9 / High Profile 4.1

AUDIO:

Codec Language Bitrate Description
----- -------- ------- -----------
DTS-HD Master Audio English 4718 kbps 6.1 / 48 kHz / 4718 kbps / 24-bit (DTS Core: 6.1-ES / 48 kHz / 1509 kbps / 24-bit)
DTS-HD Master Audio Russian 4761 kbps 6.1 / 48 kHz / 4761 kbps / 24-bit (DTS Core: 6.1-ES / 48 kHz / 1509 kbps / 24-bit)
Dolby Digital Audio Russian 448 kbps 5.1 / 48 kHz / 448 kbps / DN -4dB
Dolby Digital EX Audio Russian 448 kbps 5.1-EX / 48 kHz / 448 kbps / DN -4dB
Dolby Digital Audio English 192 kbps 2.0 / 48 kHz / 192 kbps / DN -4dB / Dolby Surround
Dolby Digital Audio English 192 kbps 2.0 / 48 kHz / 192 kbps / DN -4dB / Dolby Surround
Dolby Digital Audio English 192 kbps 2.0 / 48 kHz / 192 kbps / DN -4dB / Dolby Surround
Dolby Digital Audio English 192 kbps 2.0 / 48 kHz / 192 kbps / DN -4dB / Dolby Surround

SUBTITLES:

Codec Language Bitrate Description
----- -------- ------- -----------
Presentation Graphics English 25,799 kbps
Presentation Graphics English 5,146 kbps
Presentation Graphics English 7,033 kbps
Presentation Graphics English 0,396 kbps
Presentation Graphics English 2,937 kbps
Presentation Graphics English 4,395 kbps
Presentation Graphics Chinese 21,348 kbps
Presentation Graphics Chinese 20,299 kbps
Presentation Graphics Chinese 0,009 kbps
Presentation Graphics Chinese 0,009 kbps
Presentation Graphics Chinese 0,009 kbps
Presentation Graphics Chinese 0,009 kbps
Presentation Graphics Czech 21,470 kbps
Presentation Graphics Hebrew 17,533 kbps
Presentation Graphics Korean 20,034 kbps
Presentation Graphics Korean 0,009 kbps
Presentation Graphics Korean 0,009 kbps
Presentation Graphics Korean 0,009 kbps
Presentation Graphics Korean 0,009 kbps
Presentation Graphics Polish 19,869 kbps
Presentation Graphics Polish 0,009 kbps
Presentation Graphics Russian 30,042 kbps
Presentation Graphics Russian 30,899 kbps
Presentation Graphics Russian 0,956 kbps

FILES:

Name Time In Length Size Total Bitrate
---- ------- ------ ---- -------------
00000.M2TS 0:00:00.000 1:45:43.420 34 728 480 768 43 798

CHAPTERS:

Number Time In Length Avg Video Rate Max 1-Sec Rate Max 1-Sec Time Max 5-Sec Rate Max 5-Sec Time Max 10Sec Rate Max 10Sec Time Avg Frame Size Max Frame Size Max Frame Time
------ ------- ------ -------------- -------------- -------------- -------------- -------------- -------------- -------------- -------------- -------------- --------------
1 0:00:00.000 0:07:36.789 26 475 kbps 49 020 kbps 00:00:02.001 35 698 kbps 00:01:41.309 34 445 kbps 00:01:14.282 138 015 bytes 674 221 bytes 00:01:44.687
2 0:07:36.789 0:02:58.761 31 135 kbps 38 930 kbps 00:09:52.883 34 656 kbps 00:07:38.291 33 448 kbps 00:09:04.126 162 322 bytes 437 182 bytes 00:09:04.168
3 0:10:35.551 0:05:04.303 31 038 kbps 43 363 kbps 00:11:40.366 34 531 kbps 00:14:24.947 33 485 kbps 00:14:24.947 161 818 bytes 501 144 bytes 00:11:11.921
4 0:15:39.855 0:04:18.633 30 592 kbps 38 067 kbps 00:16:04.505 33 339 kbps 00:17:22.624 32 263 kbps 00:17:16.994 159 494 bytes 447 965 bytes 00:15:45.653
5 0:19:58.488 0:05:34.125 30 877 kbps 42 929 kbps 00:23:05.592 35 003 kbps 00:23:31.284 33 597 kbps 00:23:31.201 160 976 bytes 583 550 bytes 00:23:06.385
6 0:25:32.614 0:04:24.764 30 114 kbps 37 967 kbps 00:29:43.114 32 000 kbps 00:29:33.938 31 358 kbps 00:28:01.971 156 999 bytes 338 380 bytes 00:29:47.118
7 0:29:57.378 0:02:13.299 30 262 kbps 34 710 kbps 00:29:59.005 31 668 kbps 00:31:23.881 30 936 kbps 00:30:29.869 157 773 bytes 333 585 bytes 00:29:59.881
8 0:32:10.678 0:02:41.119 29 377 kbps 35 858 kbps 00:34:45.291 32 083 kbps 00:33:20.206 30 849 kbps 00:34:10.381 153 159 bytes 438 188 bytes 00:32:45.046
9 0:34:51.798 0:01:26.377 30 450 kbps 37 126 kbps 00:35:04.268 32 075 kbps 00:35:15.238 31 538 kbps 00:35:21.285 158 754 bytes 437 962 bytes 00:36:14.797
10 0:36:18.176 0:08:45.983 30 329 kbps 41 872 kbps 00:36:50.791 33 545 kbps 00:36:50.791 32 341 kbps 00:39:19.607 158 123 bytes 498 249 bytes 00:43:22.975
11 0:45:04.159 0:01:40.141 29 513 kbps 36 085 kbps 00:45:23.512 31 602 kbps 00:45:20.217 30 417 kbps 00:45:06.495 153 865 bytes 429 549 bytes 00:45:20.259
12 0:46:44.301 0:04:37.110 30 688 kbps 38 574 kbps 00:50:45.500 33 010 kbps 00:50:45.459 31 875 kbps 00:48:53.597 159 992 bytes 565 495 bytes 00:47:26.677
13 0:51:21.411 0:03:51.022 30 645 kbps 40 198 kbps 00:54:55.125 34 582 kbps 00:55:01.798 33 207 kbps 00:55:01.548 159 770 bytes 542 356 bytes 00:53:21.823
14 0:55:12.434 0:02:17.637 29 449 kbps 37 761 kbps 00:56:17.457 32 039 kbps 00:56:22.087 31 001 kbps 00:56:22.921 153 535 bytes 367 241 bytes 00:55:20.483
15 0:57:30.071 0:06:01.444 29 582 kbps 46 066 kbps 00:58:45.021 33 914 kbps 00:58:32.926 32 605 kbps 00:58:26.127 154 229 bytes 407 368 bytes 00:58:45.230
16 1:03:31.516 0:03:44.599 29 882 kbps 44 454 kbps 01:04:40.751 33 035 kbps 01:06:08.172 32 085 kbps 01:06:05.086 155 792 bytes 502 673 bytes 01:05:33.763
17 1:07:16.115 0:01:37.472 29 717 kbps 37 545 kbps 01:07:57.823 31 705 kbps 01:07:18.409 31 290 kbps 01:07:19.201 154 932 bytes 372 974 bytes 01:07:53.068
18 1:08:53.587 0:01:42.352 29 732 kbps 39 449 kbps 01:09:32.418 33 586 kbps 01:09:28.497 32 206 kbps 01:09:24.702 155 008 bytes 370 609 bytes 01:09:28.789
19 1:10:35.940 0:04:39.445 29 794 kbps 39 833 kbps 01:13:03.378 33 285 kbps 01:13:00.084 32 041 kbps 01:14:14.158 155 331 bytes 398 388 bytes 01:12:08.532
20 1:15:15.385 0:02:31.234 29 623 kbps 39 416 kbps 01:17:03.994 34 229 kbps 01:17:12.669 32 170 kbps 01:17:12.544 154 443 bytes 349 217 bytes 01:17:34.316
21 1:17:46.620 0:06:24.926 30 071 kbps 42 368 kbps 01:23:06.815 33 587 kbps 01:21:46.109 32 586 kbps 01:22:12.052 156 778 bytes 386 362 bytes 01:19:12.038
22 1:24:11.546 0:02:00.954 29 383 kbps 36 588 kbps 01:24:16.426 32 037 kbps 01:24:15.008 31 478 kbps 01:24:14.924 153 190 bytes 382 602 bytes 01:24:35.153
23 1:26:12.500 0:03:29.083 30 212 kbps 36 358 kbps 01:27:39.003 32 395 kbps 01:27:45.718 32 048 kbps 01:27:45.802 157 513 bytes 505 355 bytes 01:27:05.595
24 1:29:41.584 0:03:33.087 30 048 kbps 39 939 kbps 01:31:58.638 32 795 kbps 01:31:03.583 32 374 kbps 01:30:59.787 156 656 bytes 530 897 bytes 01:29:42.377
25 1:33:14.672 0:02:39.409 29 617 kbps 38 845 kbps 01:33:27.143 32 399 kbps 01:33:37.111 31 390 kbps 01:33:36.902 154 407 bytes 360 368 bytes 01:35:05.116
26 1:35:54.081 0:01:38.890 29 056 kbps 36 313 kbps 01:36:36.624 31 146 kbps 01:36:11.098 30 708 kbps 01:36:06.260 151 484 bytes 424 703 bytes 01:37:32.972
27 1:37:32.972 0:08:10.448 29 671 kbps 38 321 kbps 01:41:19.490 32 500 kbps 01:43:41.840 31 201 kbps 01:43:36.793 154 719 bytes 504 468 bytes 01:37:37.101

STREAM DIAGNOSTICS:

File PID Type Codec Language Seconds Bitrate Bytes Packets
---- --- ---- ----- -------- -------------- -------------- ------------- -----
00000.M2TS 4113 (0x1011) 0x1B AVC 6343,337 29 857 23 674 205 975 128 753 365
00000.M2TS 4352 (0x1100) 0x86 DTS-HD MA eng (English) 6343,337 4 718 3 740 874 228 21 319 814
00000.M2TS 4353 (0x1101) 0x81 AC3 rus (Russian) 6343,337 448 355 172 608 1 981 990
00000.M2TS 4354 (0x1102) 0x86 DTS-HD MA rus (Russian) 6343,337 4 761 3 775 427 676 21 508 131
00000.M2TS 4355 (0x1103) 0x81 AC3 eng (English) 6343,337 192 152 216 832 990 995
00000.M2TS 4356 (0x1104) 0x81 AC3 eng (English) 6343,337 192 152 216 832 990 995
00000.M2TS 4357 (0x1105) 0x81 AC3 eng (English) 6343,337 192 152 216 832 990 995
00000.M2TS 4358 (0x1106) 0x81 AC3 eng (English) 6343,337 192 152 216 832 990 995
00000.M2TS 4359 (0x1107) 0x81 AC3-EX rus (Russian) 6343,337 448 355 172 608 1 981 990
00000.M2TS 4608 (0x1200) 0x90 PGS eng (English) 6343,337 26 20 456 930 118 297
00000.M2TS 4609 (0x1201) 0x90 PGS zho (Chinese) 6343,337 21 16 927 120 98 768
00000.M2TS 4610 (0x1202) 0x90 PGS kor (Korean) 6343,337 20 15 885 320 93 088
00000.M2TS 4611 (0x1203) 0x90 PGS zho (Chinese) 6343,337 20 16 096 027 94 156
00000.M2TS 4612 (0x1204) 0x90 PGS ces (Czech) 6343,337 21 17 023 907 99 203
00000.M2TS 4613 (0x1205) 0x90 PGS heb (Hebrew) 6343,337 18 13 902 421 82 229
00000.M2TS 4614 (0x1206) 0x90 PGS pol (Polish) 6343,337 20 15 754 743 92 242
00000.M2TS 4615 (0x1207) 0x90 PGS rus (Russian) 6343,337 30 23 821 474 136 975
00000.M2TS 4616 (0x1208) 0x90 PGS rus (Russian) 6343,337 31 24 500 388 140 788
00000.M2TS 4617 (0x1209) 0x90 PGS eng (English) 6343,337 4 3 484 870 28 030
00000.M2TS 4618 (0x120A) 0x90 PGS zho (Chinese) 6343,337 0 6 762 44
00000.M2TS 4619 (0x120B) 0x90 PGS kor (Korean) 6343,337 0 6 762 44
00000.M2TS 4620 (0x120C) 0x90 PGS eng (English) 6343,337 3 2 329 083 17 954
00000.M2TS 4621 (0x120D) 0x90 PGS zho (Chinese) 6343,337 0 6 762 44
00000.M2TS 4622 (0x120E) 0x90 PGS kor (Korean) 6343,337 0 6 762 44
00000.M2TS 4623 (0x120F) 0x90 PGS eng (English) 6343,337 5 4 080 278 32 147
00000.M2TS 4624 (0x1210) 0x90 PGS zho (Chinese) 6343,337 0 6 762 44
00000.M2TS 4625 (0x1211) 0x90 PGS kor (Korean) 6343,337 0 6 762 44
00000.M2TS 4626 (0x1212) 0x90 PGS eng (English) 6343,337 7 5 576 491 47 795
00000.M2TS 4627 (0x1213) 0x90 PGS zho (Chinese) 6343,337 0 6 762 44
00000.M2TS 4628 (0x1214) 0x90 PGS kor (Korean) 6343,337 0 6 762 44
00000.M2TS 4629 (0x1215) 0x90 PGS eng (English) 6343,337 0 313 644 1 816
00000.M2TS 4630 (0x1216) 0x90 PGS pol (Polish) 6343,337 0 6 762 44
00000.M2TS 4631 (0x1217) 0x90 PGS rus (Russian) 6343,337 1 757 758 4 351
Свернуть
BDInfo Disc 1-2
DISC INFO:

Disc Title: DISC2
Disc Size: 38 821 032 155 bytes
Protection: AACS
BD-Java: Yes
BDInfo: 0.5.6

PLAYLIST REPORT:

Name: 00100.MPLS
Length: 2:02:34 (h:m:s)
Size: 37 955 450 880 bytes
Total Bitrate: 41,29 Mbps

VIDEO:

Codec Bitrate Description
----- ------- -----------
MPEG-4 AVC Video 29855 kbps 1080p / 23,976 fps / 16:9 / High Profile 4.1

AUDIO:

Codec Language Bitrate Description
----- -------- ------- -----------
DTS-HD Master Audio English 2393 kbps 6.1 / 48 kHz / 2393 kbps / 16-bit (DTS Core: 6.1-ES / 48 kHz / 1509 kbps / 16-bit)
DTS-HD Master Audio Russian 4790 kbps 6.1 / 48 kHz / 4790 kbps / 24-bit (DTS Core: 6.1-ES / 48 kHz / 1509 kbps / 24-bit)
Dolby Digital Audio Russian 448 kbps 5.1 / 48 kHz / 448 kbps / DN -4dB
Dolby Digital EX Audio Russian 448 kbps 5.1-EX / 48 kHz / 448 kbps / DN -4dB
Dolby Digital Audio English 192 kbps 2.0 / 48 kHz / 192 kbps / DN -4dB / Dolby Surround
Dolby Digital Audio English 192 kbps 2.0 / 48 kHz / 192 kbps / DN -4dB / Dolby Surround
Dolby Digital Audio English 192 kbps 2.0 / 48 kHz / 192 kbps / DN -4dB / Dolby Surround
Dolby Digital Audio English 192 kbps 2.0 / 48 kHz / 192 kbps / DN -4dB / Dolby Surround

SUBTITLES:

Codec Language Bitrate Description
----- -------- ------- -----------
Presentation Graphics English 13,600 kbps
Presentation Graphics English 4,045 kbps
Presentation Graphics English 4,804 kbps
Presentation Graphics English 0,319 kbps
Presentation Graphics English 2,666 kbps
Presentation Graphics English 3,033 kbps
Presentation Graphics Chinese 12,064 kbps
Presentation Graphics Chinese 10,984 kbps
Presentation Graphics Chinese 0,007 kbps
Presentation Graphics Chinese 0,007 kbps
Presentation Graphics Chinese 0,007 kbps
Presentation Graphics Chinese 0,007 kbps
Presentation Graphics Czech 11,829 kbps
Presentation Graphics Hebrew 9,527 kbps
Presentation Graphics Korean 10,517 kbps
Presentation Graphics Korean 0,007 kbps
Presentation Graphics Korean 0,007 kbps
Presentation Graphics Korean 0,007 kbps
Presentation Graphics Korean 0,007 kbps
Presentation Graphics Polish 11,539 kbps
Presentation Graphics Polish 0,007 kbps
Presentation Graphics Russian 16,074 kbps
Presentation Graphics Russian 16,655 kbps
Presentation Graphics Russian 0,786 kbps

FILES:

Name Time In Length Size Total Bitrate
---- ------- ------ ---- -------------
00005.M2TS 0:00:00.000 2:02:34.347 37 955 450 880 41 288

CHAPTERS:

Number Time In Length Avg Video Rate Max 1-Sec Rate Max 1-Sec Time Max 5-Sec Rate Max 5-Sec Time Max 10Sec Rate Max 10Sec Time Avg Frame Size Max Frame Size Max Frame Time
------ ------- ------ -------------- -------------- -------------- -------------- -------------- -------------- -------------- -------------- -------------- --------------
1 0:00:00.000 0:01:15.825 27 732 kbps 36 236 kbps 00:00:25.525 31 281 kbps 00:00:32.532 30 332 kbps 00:00:32.699 144 501 bytes 421 128 bytes 00:00:02.002
2 0:01:15.825 0:01:43.394 28 387 kbps 36 991 kbps 00:02:15.802 31 063 kbps 00:02:12.799 29 392 kbps 00:01:16.201 147 999 bytes 360 690 bytes 00:01:20.663
3 0:02:59.220 0:01:17.410 28 826 kbps 35 860 kbps 00:03:55.985 31 609 kbps 00:03:55.652 29 867 kbps 00:03:38.843 150 285 bytes 580 999 bytes 00:03:15.612
4 0:04:16.631 0:03:05.810 30 488 kbps 45 771 kbps 00:07:03.131 34 463 kbps 00:06:49.283 32 980 kbps 00:06:44.320 158 951 bytes 484 523 bytes 00:06:51.202
5 0:07:22.442 0:04:46.286 30 780 kbps 52 844 kbps 00:09:45.710 38 014 kbps 00:09:25.106 35 516 kbps 00:09:51.799 160 474 bytes 418 741 bytes 00:10:58.532
6 0:12:08.728 0:06:25.385 29 122 kbps 39 740 kbps 00:18:00.162 33 989 kbps 00:17:49.026 31 706 kbps 00:17:51.153 151 830 bytes 427 678 bytes 00:16:00.709
7 0:18:34.113 0:06:30.348 29 872 kbps 52 817 kbps 00:18:37.991 34 512 kbps 00:20:04.703 33 852 kbps 00:20:01.658 155 742 bytes 522 955 bytes 00:18:38.242
8 0:25:04.461 0:09:24.730 30 445 kbps 47 228 kbps 00:32:22.315 34 649 kbps 00:26:30.922 32 874 kbps 00:26:26.209 158 724 bytes 410 625 bytes 00:34:29.192
9 0:34:29.192 0:09:41.455 29 829 kbps 47 220 kbps 00:40:04.193 36 204 kbps 00:39:59.980 32 606 kbps 00:40:37.768 155 517 bytes 478 413 bytes 00:40:04.235
10 0:44:10.648 0:03:12.650 29 903 kbps 42 626 kbps 00:44:23.827 33 410 kbps 00:44:23.786 32 065 kbps 00:44:23.827 155 900 bytes 458 204 bytes 00:44:19.657
11 0:47:23.298 0:07:17.019 29 957 kbps 38 301 kbps 00:52:21.888 32 284 kbps 00:48:55.474 31 413 kbps 00:47:23.966 156 180 bytes 537 017 bytes 00:47:33.684
12 0:54:40.318 0:05:40.006 29 950 kbps 44 088 kbps 00:57:20.645 33 387 kbps 00:57:20.395 32 062 kbps 00:57:20.019 156 147 bytes 395 969 bytes 00:57:32.991
13 1:00:20.325 0:01:41.351 29 782 kbps 41 105 kbps 01:01:05.411 32 544 kbps 01:00:21.492 31 263 kbps 01:00:56.778 155 268 bytes 442 644 bytes 01:01:23.012
14 1:02:01.676 0:05:22.530 30 197 kbps 41 614 kbps 01:03:29.931 33 735 kbps 01:06:55.511 32 799 kbps 01:06:55.511 157 432 bytes 545 036 bytes 01:03:41.526
15 1:07:24.206 0:04:52.250 30 727 kbps 37 805 kbps 01:08:49.375 34 238 kbps 01:07:24.623 33 238 kbps 01:08:36.362 160 196 bytes 510 271 bytes 01:08:19.261
16 1:12:16.457 0:06:27.762 31 286 kbps 42 583 kbps 01:16:04.560 35 742 kbps 01:15:34.112 34 094 kbps 01:15:30.234 163 113 bytes 549 131 bytes 01:16:02.933
17 1:18:44.219 0:07:15.935 31 623 kbps 45 259 kbps 01:20:20.732 35 134 kbps 01:21:58.413 33 896 kbps 01:21:55.869 164 866 bytes 566 694 bytes 01:21:08.780
18 1:26:00.155 0:02:42.328 30 687 kbps 35 920 kbps 01:28:30.763 32 865 kbps 01:26:05.577 31 850 kbps 01:26:02.615 159 985 bytes 508 178 bytes 01:28:25.425
19 1:28:42.483 0:06:18.169 30 738 kbps 42 332 kbps 01:30:41.519 35 555 kbps 01:30:08.236 33 941 kbps 01:30:05.483 160 252 bytes 441 532 bytes 01:32:49.855
20 1:35:00.653 0:07:40.501 27 440 kbps 41 650 kbps 01:35:02.488 35 452 kbps 01:37:54.118 34 713 kbps 01:38:32.406 143 061 bytes 418 119 bytes 01:37:58.497
21 1:42:41.155 0:19:53.191 28 883 kbps 37 170 kbps 01:42:43.574 32 258 kbps 01:42:42.906 30 359 kbps 01:42:42.781 150 591 bytes 470 773 bytes 02:01:29.240

STREAM DIAGNOSTICS:

File PID Type Codec Language Seconds Bitrate Bytes Packets
---- --- ---- ----- -------- -------------- -------------- ------------- -----
00005.M2TS 4113 (0x1011) 0x1B AVC 7354,264 29 855 27 445 281 110 149 262 926
00005.M2TS 4352 (0x1100) 0x86 DTS-HD MA eng (English) 7354,264 2 393 2 200 298 716 13 103 175
00005.M2TS 4353 (0x1101) 0x81 AC3 rus (Russian) 7354,264 448 411 900 160 2 298 550
00005.M2TS 4354 (0x1102) 0x86 DTS-HD MA rus (Russian) 7354,264 4 790 4 403 723 704 25 080 515
00005.M2TS 4355 (0x1103) 0x81 AC3 eng (English) 7354,264 192 176 528 640 1 149 275
00005.M2TS 4356 (0x1104) 0x81 AC3 eng (English) 7354,264 192 176 528 640 1 149 275
00005.M2TS 4357 (0x1105) 0x81 AC3 eng (English) 7354,264 192 176 528 640 1 149 275
00005.M2TS 4358 (0x1106) 0x81 AC3 eng (English) 7354,264 192 176 528 640 1 149 275
00005.M2TS 4359 (0x1107) 0x81 AC3-EX rus (Russian) 7354,264 448 411 753 216 2 297 730
00005.M2TS 4608 (0x1200) 0x90 PGS eng (English) 7354,264 14 12 502 463 72 619
00005.M2TS 4609 (0x1201) 0x90 PGS zho (Chinese) 7354,264 12 11 090 625 64 846
00005.M2TS 4610 (0x1202) 0x90 PGS kor (Korean) 7354,264 11 9 668 183 57 001
00005.M2TS 4611 (0x1203) 0x90 PGS zho (Chinese) 7354,264 11 10 097 974 59 320
00005.M2TS 4612 (0x1204) 0x90 PGS ces (Czech) 7354,264 12 10 873 983 63 516
00005.M2TS 4613 (0x1205) 0x90 PGS heb (Hebrew) 7354,264 10 8 758 257 52 046
00005.M2TS 4614 (0x1206) 0x90 PGS pol (Polish) 7354,264 12 10 607 760 62 114
00005.M2TS 4615 (0x1207) 0x90 PGS rus (Russian) 7354,264 16 14 776 489 85 269
00005.M2TS 4616 (0x1208) 0x90 PGS rus (Russian) 7354,264 17 15 310 808 88 250
00005.M2TS 4617 (0x1209) 0x90 PGS eng (English) 7354,264 3 2 788 505 22 492
00005.M2TS 4618 (0x120A) 0x90 PGS zho (Chinese) 7354,264 0 6 762 44
00005.M2TS 4619 (0x120B) 0x90 PGS kor (Korean) 7354,264 0 6 762 44
00005.M2TS 4620 (0x120C) 0x90 PGS eng (English) 7354,264 3 2 450 895 18 755
00005.M2TS 4621 (0x120D) 0x90 PGS zho (Chinese) 7354,264 0 6 762 44
00005.M2TS 4622 (0x120E) 0x90 PGS kor (Korean) 7354,264 0 6 762 44
00005.M2TS 4623 (0x120F) 0x90 PGS eng (English) 7354,264 4 3 718 855 29 401
00005.M2TS 4624 (0x1210) 0x90 PGS zho (Chinese) 7354,264 0 6 762 44
00005.M2TS 4625 (0x1211) 0x90 PGS kor (Korean) 7354,264 0 6 762 44
00005.M2TS 4626 (0x1212) 0x90 PGS eng (English) 7354,264 5 4 416 572 38 111
00005.M2TS 4627 (0x1213) 0x90 PGS zho (Chinese) 7354,264 0 6 762 44
00005.M2TS 4628 (0x1214) 0x90 PGS kor (Korean) 7354,264 0 6 762 44
00005.M2TS 4629 (0x1215) 0x90 PGS eng (English) 7354,264 0 293 416 1 709
00005.M2TS 4630 (0x1216) 0x90 PGS pol (Polish) 7354,264 0 6 762 44
00005.M2TS 4631 (0x1217) 0x90 PGS rus (Russian) 7354,264 1 722 394 4 115
Свернуть

Изображение

Страна: США, Новая Зеландия
Жанр: Боевик, фэнтези, приключения
Год выпуска: 2002
Продолжительность: 01:46:39 + 02:08:50
Постер
Изображение

Свернуть
Перевод: Дубляж (со вставками MVO "Позитив-мультимедиа"), закадровый многоголосый (2 шт.)
Cубтитры: русские
Режиссер: Питер Джексон / Peter Jackson

В ролях: Элайджа Вуд, Йен МакКеллен, Вигго Мортенсен, Шон Эстин, Билли Бойд, Лив Тайлер, Доминик Монахэн, Орландо Блум, Джон Риз-Дэйвис, Иэн Холм, Кейт Бланшетт, Хьюго Уивинг, Бернард Хилл, Миранда Отто, Карл Урбан, Дэвид Уэнэм, Джон Ноубл, Энди Серкис, Ноэл Эпплби, Александра Эстин, Джон Бах, Шон Бин, Мартон Чокаш, Брюс Хопкинс

Описание: Братство распалось, но Кольцо Всевластья должно быть уничтожено. Фродо и Сэм вынуждены доверить свои жизни Голлуму, который взялся провести их к вратам Мордора. Громадная Армия Сарумана приближается: члены братства и их союзники готовы принять бой. Битва за Средиземье продолжается.…
Тип релиза: Blu-ray disc (custom)
Контейнер: BDMV
Видео:
DISC1: 1920х1080p / 23,976 fps / 16:9 / High Profile 4.1 / 29894 kbps
DISC2: 1920х1080p / 23,976 fps / 16:9 / High Profile 4.1 / 29872 kbps

Аудио:
Disc1
DTS-HD Master Audio English 4430 kbps 6.1 / 48 kHz / 4430 kbps / 24-bit (DTS Core: 6.1-ES / 48 kHz / 1509 kbps / 16-bit)
DTS-HD Master Audio Russian 4442 kbps 6.1 / 48 kHz / 4442 kbps / 24-bit (DTS Core: 6.1-ES / 48 kHz / 1509 kbps / 24-bit) (MVO - Superbit)
Dolby Digital Audio Russian 448 kbps 5.1 / 48 kHz / 448 kbps / DN -4dB (Дубляж)
Dolby Digital EX Audio Russian 448 kbps 5.1-EX / 48 kHz / 448 kbps / DN -4dB (MVO - Позитив)
Dolby Digital Audio English 192 kbps 2.0 / 48 kHz / 192 kbps / DN -4dB / Dolby Surround
Dolby Digital Audio English 192 kbps 2.0 / 48 kHz / 192 kbps / DN -4dB / Dolby Surround
Dolby Digital Audio English 192 kbps 2.0 / 48 kHz / 192 kbps / DN -4dB / Dolby Surround
Dolby Digital Audio English 192 kbps 2.0 / 48 kHz / 192 kbps / DN -4dB / Dolby Surround

Dis2
DTS-HD Master Audio English 4519 kbps 6.1 / 48 kHz / 4519 kbps / 24-bit (DTS Core: 6.1-ES / 48 kHz / 1509 kbps / 24-bit)
DTS-HD Master Audio Russian 4529 kbps 6.1 / 48 kHz / 4529 kbps / 24-bit (DTS Core: 6.1-ES / 48 kHz / 1509 kbps / 24-bit) (MVO - Superbit)
Dolby Digital Audio Russian 448 kbps 5.1 / 48 kHz / 448 kbps / DN -4dB (Дубляж)
Dolby Digital EX Audio Russian 448 kbps 5.1-EX / 48 kHz / 448 kbps / DN -4dB (MVO - Позитив)
Dolby Digital Audio English 192 kbps 2.0 / 48 kHz / 192 kbps / DN -4dB / Dolby Surround
Dolby Digital Audio English 192 kbps 2.0 / 48 kHz / 192 kbps / DN -4dB / Dolby Surround
Dolby Digital Audio English 192 kbps 2.0 / 48 kHz / 192 kbps / DN -4dB / Dolby Surround
Dolby Digital Audio English 192 kbps 2.0 / 48 kHz / 192 kbps / DN -4dB / Dolby Surround

Свернуть
Субтитры: English, Chinese, Czech, Hebrew, Korean, Polish, Russian (Позитив), Russian (от фанов фильма), Russian (Эльфийская речь)
Скриншоты
Изображение
Изображение
Изображение
Свернуть
BDInfo Disc 2-1
DISC INFO:

Disc Title: DISC1
Disc Size: 34 879 154 941 bytes
Protection: AACS
BD-Java: Yes
BDInfo: 0.5.6

PLAYLIST REPORT:

Name: 00100.MPLS
Length: 1:46:39 (h:m:s)
Size: 34 541 506 560 bytes
Total Bitrate: 43,18 Mbps

VIDEO:

Codec Bitrate Description
----- ------- -----------
MPEG-4 AVC Video 29894 kbps 1080p / 23,976 fps / 16:9 / High Profile 4.1

AUDIO:

Codec Language Bitrate Description
----- -------- ------- -----------
DTS-HD Master Audio English 4430 kbps 6.1 / 48 kHz / 4430 kbps / 24-bit (DTS Core: 6.1-ES / 48 kHz / 1509 kbps / 24-bit)
DTS-HD Master Audio Russian 4442 kbps 6.1 / 48 kHz / 4442 kbps / 24-bit (DTS Core: 6.1-ES / 48 kHz / 1509 kbps / 24-bit)
Dolby Digital Audio Russian 448 kbps 5.1 / 48 kHz / 448 kbps / DN -4dB
Dolby Digital EX Audio Russian 448 kbps 5.1-EX / 48 kHz / 448 kbps / DN -4dB
Dolby Digital Audio English 192 kbps 2.0 / 48 kHz / 192 kbps / DN -4dB / Dolby Surround
Dolby Digital Audio English 192 kbps 2.0 / 48 kHz / 192 kbps / DN -4dB / Dolby Surround
Dolby Digital Audio English 192 kbps 2.0 / 48 kHz / 192 kbps / DN -4dB / Dolby Surround
Dolby Digital Audio English 192 kbps 2.0 / 48 kHz / 192 kbps / DN -4dB / Dolby Surround

SUBTITLES:

Codec Language Bitrate Description
----- -------- ------- -----------
Presentation Graphics English 22,464 kbps
Presentation Graphics English 4,628 kbps
Presentation Graphics English 6,723 kbps
Presentation Graphics English 0,050 kbps
Presentation Graphics English 7,459 kbps
Presentation Graphics English 6,480 kbps
Presentation Graphics Chinese 18,511 kbps
Presentation Graphics Chinese 17,086 kbps
Presentation Graphics Chinese 0,008 kbps
Presentation Graphics Chinese 0,008 kbps
Presentation Graphics Chinese 0,008 kbps
Presentation Graphics Chinese 0,008 kbps
Presentation Graphics Czech 18,656 kbps
Presentation Graphics Hebrew 15,190 kbps
Presentation Graphics Korean 16,821 kbps
Presentation Graphics Korean 0,008 kbps
Presentation Graphics Korean 0,008 kbps
Presentation Graphics Korean 0,008 kbps
Presentation Graphics Korean 0,008 kbps
Presentation Graphics Polish 18,347 kbps
Presentation Graphics Polish 0,008 kbps
Presentation Graphics Russian 26,057 kbps
Presentation Graphics Russian 26,352 kbps
Presentation Graphics Russian 0,251 kbps

FILES:

Name Time In Length Size Total Bitrate
---- ------- ------ ---- -------------
00004.M2TS 0:00:00.000 1:46:39.184 34 541 506 560 43 182

CHAPTERS:

Number Time In Length Avg Video Rate Max 1-Sec Rate Max 1-Sec Time Max 5-Sec Rate Max 5-Sec Time Max 10Sec Rate Max 10Sec Time Avg Frame Size Max Frame Size Max Frame Time
------ ------- ------ -------------- -------------- -------------- -------------- -------------- -------------- -------------- -------------- -------------- --------------
1 0:00:00.000 0:04:08.748 26 857 kbps 57 368 kbps 00:00:03.753 36 538 kbps 00:00:03.753 34 058 kbps 00:00:03.753 139 995 bytes 496 074 bytes 00:00:03.962
2 0:04:08.748 0:02:02.080 29 549 kbps 39 547 kbps 00:04:37.652 33 769 kbps 00:04:43.449 32 011 kbps 00:05:04.762 154 052 bytes 491 627 bytes 00:06:10.828
3 0:06:10.828 0:08:34.138 30 498 kbps 45 653 kbps 00:06:55.123 35 528 kbps 00:08:05.568 34 222 kbps 00:11:32.108 159 003 bytes 524 438 bytes 00:06:12.455
4 0:14:44.967 0:02:21.641 32 737 kbps 45 786 kbps 00:15:17.041 35 566 kbps 00:17:00.394 35 026 kbps 00:15:16.665 170 674 bytes 476 942 bytes 00:17:05.983
5 0:17:06.608 0:02:11.339 29 882 kbps 38 856 kbps 00:18:19.264 33 210 kbps 00:17:42.394 32 595 kbps 00:17:36.805 155 790 bytes 495 805 bytes 00:19:04.309
6 0:19:17.948 0:03:49.145 30 495 kbps 44 098 kbps 00:20:45.244 36 333 kbps 00:21:57.941 34 224 kbps 00:21:52.894 158 987 bytes 428 941 bytes 00:22:59.503
7 0:23:07.094 0:00:51.217 31 012 kbps 38 161 kbps 00:23:44.589 33 500 kbps 00:23:16.478 32 797 kbps 00:23:15.060 161 681 bytes 332 231 bytes 00:23:29.908
8 0:23:58.311 0:03:10.732 29 686 kbps 44 120 kbps 00:25:55.887 33 891 kbps 00:24:24.588 32 876 kbps 00:24:25.297 154 767 bytes 385 527 bytes 00:24:50.488
9 0:27:09.044 0:00:54.137 30 182 kbps 39 468 kbps 00:27:54.464 33 872 kbps 00:27:21.640 32 202 kbps 00:27:19.554 157 356 bytes 422 812 bytes 00:27:41.326
10 0:28:03.181 0:03:35.048 29 300 kbps 43 562 kbps 00:29:16.755 32 976 kbps 00:29:40.695 31 810 kbps 00:29:40.487 152 755 bytes 469 013 bytes 00:28:11.356
11 0:31:38.229 0:04:07.288 31 178 kbps 39 567 kbps 00:34:03.499 36 212 kbps 00:35:22.286 34 303 kbps 00:35:18.825 162 550 bytes 504 572 bytes 00:35:32.130
12 0:35:45.518 0:02:32.360 30 770 kbps 44 498 kbps 00:37:40.549 34 921 kbps 00:37:01.928 33 288 kbps 00:37:37.755 160 419 bytes 513 822 bytes 00:36:37.403
13 0:38:17.878 0:03:29.918 27 557 kbps 38 610 kbps 00:41:40.122 31 367 kbps 00:39:13.517 30 109 kbps 00:38:54.707 143 670 bytes 461 750 bytes 00:40:36.100
14 0:41:47.796 0:09:01.958 29 066 kbps 48 495 kbps 00:46:29.495 36 982 kbps 00:46:29.745 35 861 kbps 00:46:29.661 151 539 bytes 526 479 bytes 00:41:50.508
15 0:50:49.755 0:07:29.657 30 132 kbps 45 697 kbps 00:54:40.819 36 018 kbps 00:54:40.610 34 316 kbps 00:52:45.120 157 094 bytes 491 992 bytes 00:53:02.304
16 0:58:19.412 0:02:20.765 28 910 kbps 36 703 kbps 01:00:09.689 32 688 kbps 00:58:41.643 31 963 kbps 00:58:41.392 150 722 bytes 481 794 bytes 01:00:20.700
17 1:00:40.178 0:02:08.127 29 572 kbps 38 636 kbps 01:02:44.177 32 638 kbps 01:01:37.443 31 663 kbps 01:02:08.307 154 174 bytes 351 215 bytes 01:00:47.393
18 1:02:48.306 0:05:17.692 30 029 kbps 39 747 kbps 01:07:27.209 34 116 kbps 01:05:53.074 32 944 kbps 01:06:57.596 156 559 bytes 666 002 bytes 01:04:56.183
19 1:08:05.998 0:04:35.733 29 722 kbps 42 371 kbps 01:11:07.930 33 941 kbps 01:10:13.417 33 254 kbps 01:10:13.334 154 955 bytes 538 334 bytes 01:11:02.758
20 1:12:41.732 0:11:35.611 30 933 kbps 44 542 kbps 01:19:11.163 38 282 kbps 01:20:34.454 36 141 kbps 01:20:34.454 161 271 bytes 495 455 bytes 01:15:52.798
21 1:24:17.343 0:01:24.292 28 647 kbps 33 291 kbps 01:25:08.186 30 870 kbps 01:24:38.656 30 227 kbps 01:24:33.651 149 350 bytes 470 134 bytes 01:24:38.114
22 1:25:41.636 0:01:52.695 28 421 kbps 35 797 kbps 01:25:51.980 30 901 kbps 01:27:24.948 30 340 kbps 01:25:51.771 148 172 bytes 519 988 bytes 01:27:17.774
23 1:27:34.332 0:03:11.191 30 232 kbps 38 006 kbps 01:29:31.657 33 630 kbps 01:29:28.696 32 262 kbps 01:28:19.210 157 616 bytes 441 030 bytes 01:30:41.978
24 1:30:45.523 0:01:45.063 31 862 kbps 40 049 kbps 01:30:51.446 34 554 kbps 01:30:48.234 33 424 kbps 01:30:50.736 166 113 bytes 326 855 bytes 01:32:30.586
25 1:32:30.586 0:02:00.453 28 735 kbps 36 878 kbps 01:33:37.236 31 679 kbps 01:33:37.069 30 602 kbps 01:33:36.902 149 813 bytes 420 135 bytes 01:34:06.974
26 1:34:31.040 0:01:26.002 29 683 kbps 38 254 kbps 01:35:14.667 33 121 kbps 01:35:03.197 32 090 kbps 01:35:01.445 154 751 bytes 298 002 bytes 01:35:57.001
27 1:35:57.042 0:01:05.273 29 527 kbps 39 495 kbps 01:36:28.449 31 838 kbps 01:36:28.449 31 320 kbps 01:36:37.208 153 943 bytes 497 678 bytes 01:36:21.692
28 1:37:02.316 0:01:41.643 30 551 kbps 38 343 kbps 01:37:05.277 35 336 kbps 01:37:05.069 33 861 kbps 01:37:02.900 159 281 bytes 467 375 bytes 01:37:43.649
29 1:38:43.959 0:02:30.859 28 543 kbps 37 314 kbps 01:40:16.301 31 442 kbps 01:38:45.544 31 013 kbps 01:38:45.294 148 811 bytes 452 288 bytes 01:40:57.760
30 1:41:14.818 0:05:24.365 30 531 kbps 43 538 kbps 01:41:44.556 35 946 kbps 01:41:41.178 34 034 kbps 01:44:41.275 159 214 bytes 541 191 bytes 01:43:13.228

STREAM DIAGNOSTICS:

File PID Type Codec Language Seconds Bitrate Bytes Packets
---- --- ---- ----- -------- -------------- -------------- ------------- -----
00004.M2TS 4113 (0x1011) 0x1B AVC 6399,101 29 895 23 912 429 788 130 049 087
00004.M2TS 4352 (0x1100) 0x86 DTS-HD MA eng (English) 6399,101 4 430 3 543 443 600 20 255 766
00004.M2TS 4353 (0x1101) 0x81 AC3 rus (Russian) 6399,101 448 358 376 704 1 999 870
00004.M2TS 4354 (0x1102) 0x86 DTS-HD MA rus (Russian) 6399,101 4 442 3 553 222 780 20 308 729
00004.M2TS 4355 (0x1103) 0x81 AC3 eng (English) 6399,101 192 153 590 016 999 935
00004.M2TS 4356 (0x1104) 0x81 AC3 eng (English) 6399,101 192 153 590 016 999 935
00004.M2TS 4357 (0x1105) 0x81 AC3 eng (English) 6399,101 192 153 590 016 999 935
00004.M2TS 4358 (0x1106) 0x81 AC3 eng (English) 6399,101 192 153 590 016 999 935
00004.M2TS 4359 (0x1107) 0x81 AC3-EX rus (Russian) 6399,101 448 358 376 704 1 999 870
00004.M2TS 4608 (0x1200) 0x90 PGS eng (English) 6399,101 22 17 969 138 104 969
00004.M2TS 4609 (0x1201) 0x90 PGS zho (Chinese) 6399,101 19 14 806 640 87 218
00004.M2TS 4610 (0x1202) 0x90 PGS kor (Korean) 6399,101 17 13 455 480 79 881
00004.M2TS 4611 (0x1203) 0x90 PGS zho (Chinese) 6399,101 17 13 666 743 81 038
00004.M2TS 4612 (0x1204) 0x90 PGS ces (Czech) 6399,101 19 14 922 927 87 753
00004.M2TS 4613 (0x1205) 0x90 PGS heb (Hebrew) 6399,101 15 12 150 482 72 793
00004.M2TS 4614 (0x1206) 0x90 PGS pol (Polish) 6399,101 18 14 675 838 86 515
00004.M2TS 4615 (0x1207) 0x90 PGS rus (Russian) 6399,101 26 20 842 595 120 935
00004.M2TS 4616 (0x1208) 0x90 PGS rus (Russian) 6399,101 26 21 078 858 122 287
00004.M2TS 4617 (0x1209) 0x90 PGS eng (English) 6399,101 6 5 183 518 41 662
00004.M2TS 4618 (0x120A) 0x90 PGS zho (Chinese) 6399,101 0 6 762 44
00004.M2TS 4619 (0x120B) 0x90 PGS kor (Korean) 6399,101 0 6 762 44
00004.M2TS 4620 (0x120C) 0x90 PGS eng (English) 6399,101 7 5 966 638 45 683
00004.M2TS 4621 (0x120D) 0x90 PGS zho (Chinese) 6399,101 0 6 762 44
00004.M2TS 4622 (0x120E) 0x90 PGS kor (Korean) 6399,101 0 6 762 44
00004.M2TS 4623 (0x120F) 0x90 PGS eng (English) 6399,101 5 3 701 723 29 547
00004.M2TS 4624 (0x1210) 0x90 PGS zho (Chinese) 6399,101 0 6 762 44
00004.M2TS 4625 (0x1211) 0x90 PGS kor (Korean) 6399,101 0 6 762 44
00004.M2TS 4626 (0x1212) 0x90 PGS eng (English) 6399,101 7 5 377 559 46 035
00004.M2TS 4627 (0x1213) 0x90 PGS zho (Chinese) 6399,101 0 6 762 44
00004.M2TS 4628 (0x1214) 0x90 PGS kor (Korean) 6399,101 0 6 762 44
00004.M2TS 4629 (0x1215) 0x90 PGS eng (English) 6399,101 0 40 062 239
00004.M2TS 4630 (0x1216) 0x90 PGS pol (Polish) 6399,101 0 6 762 44
00004.M2TS 4631 (0x1217) 0x90 PGS rus (Russian) 6399,101 0 200 973 1 173
Свернуть
BDInfo Disc 2-2
DISC INFO:

Disc Title: DISC2
Disc Size: 42 244 891 076 bytes
Protection: AACS
BD-Java: Yes
BDInfo: 0.5.6

PLAYLIST REPORT:

Name: 00100.MPLS
Length: 2:08:50 (h:m:s)
Size: 41 840 867 328 bytes
Total Bitrate: 43,30 Mbps

VIDEO:

Codec Bitrate Description
----- ------- -----------
MPEG-4 AVC Video 29872 kbps 1080p / 23,976 fps / 16:9 / High Profile 4.1

AUDIO:

Codec Language Bitrate Description
----- -------- ------- -----------
DTS-HD Master Audio English 4519 kbps 6.1 / 48 kHz / 4519 kbps / 24-bit (DTS Core: 6.1-ES / 48 kHz / 1509 kbps / 24-bit)
DTS-HD Master Audio Russian 4529 kbps 6.1 / 48 kHz / 4529 kbps / 24-bit (DTS Core: 6.1-ES / 48 kHz / 1509 kbps / 24-bit)
Dolby Digital Audio Russian 448 kbps 5.1 / 48 kHz / 448 kbps / DN -4dB
Dolby Digital EX Audio Russian 448 kbps 5.1-EX / 48 kHz / 448 kbps / DN -4dB
Dolby Digital Audio English 192 kbps 2.0 / 48 kHz / 192 kbps / DN -4dB / Dolby Surround
Dolby Digital Audio English 192 kbps 2.0 / 48 kHz / 192 kbps / DN -4dB / Dolby Surround
Dolby Digital Audio English 192 kbps 2.0 / 48 kHz / 192 kbps / DN -4dB / Dolby Surround
Dolby Digital Audio English 192 kbps 2.0 / 48 kHz / 192 kbps / DN -4dB / Dolby Surround

SUBTITLES:

Codec Language Bitrate Description
----- -------- ------- -----------
Presentation Graphics English 17,825 kbps
Presentation Graphics English 4,568 kbps
Presentation Graphics English 6,225 kbps
Presentation Graphics English 0,774 kbps
Presentation Graphics English 6,339 kbps
Presentation Graphics English 5,276 kbps
Presentation Graphics Chinese 14,400 kbps
Presentation Graphics Chinese 13,634 kbps
Presentation Graphics Chinese 0,007 kbps
Presentation Graphics Chinese 0,007 kbps
Presentation Graphics Chinese 0,007 kbps
Presentation Graphics Chinese 0,007 kbps
Presentation Graphics Czech 14,483 kbps
Presentation Graphics Hebrew 11,805 kbps
Presentation Graphics Korean 13,270 kbps
Presentation Graphics Korean 0,007 kbps
Presentation Graphics Korean 0,007 kbps
Presentation Graphics Korean 0,007 kbps
Presentation Graphics Korean 0,007 kbps
Presentation Graphics Polish 14,248 kbps
Presentation Graphics Polish 0,007 kbps
Presentation Graphics Russian 20,525 kbps
Presentation Graphics Russian 20,904 kbps
Presentation Graphics Russian 1,047 kbps

FILES:

Name Time In Length Size Total Bitrate
---- ------- ------ ---- -------------
00000.M2TS 0:00:00.000 2:08:50.931 41 840 867 328 43 297

CHAPTERS:

Number Time In Length Avg Video Rate Max 1-Sec Rate Max 1-Sec Time Max 5-Sec Rate Max 5-Sec Time Max 10Sec Rate Max 10Sec Time Avg Frame Size Max Frame Size Max Frame Time
------ ------- ------ -------------- -------------- -------------- -------------- -------------- -------------- -------------- -------------- -------------- --------------
1 0:00:00.000 0:00:42.792 30 336 kbps 42 641 kbps 00:00:34.242 33 343 kbps 00:00:30.196 32 353 kbps 00:00:25.150 158 004 bytes 377 393 bytes 00:00:38.371
2 0:00:42.792 0:02:29.858 29 850 kbps 35 341 kbps 00:02:29.774 31 806 kbps 00:02:04.749 31 095 kbps 00:02:04.082 155 625 bytes 417 677 bytes 00:01:21.873
3 0:03:12.650 0:05:06.556 28 906 kbps 36 780 kbps 00:06:19.420 32 766 kbps 00:06:40.274 31 541 kbps 00:06:39.399 150 702 bytes 406 663 bytes 00:06:50.284
4 0:08:19.207 0:06:38.189 30 847 kbps 45 100 kbps 00:09:10.049 34 562 kbps 00:09:06.337 33 391 kbps 00:10:20.953 160 824 bytes 446 228 bytes 00:13:12.792
5 0:14:57.396 0:02:40.118 30 791 kbps 40 859 kbps 00:16:52.428 34 426 kbps 00:16:49.925 33 472 kbps 00:16:50.134 160 528 bytes 643 815 bytes 00:17:28.714
6 0:17:37.514 0:02:36.447 29 990 kbps 35 455 kbps 00:19:05.519 32 888 kbps 00:18:52.047 32 034 kbps 00:18:50.796 156 354 bytes 405 146 bytes 00:19:25.372
7 0:20:13.962 0:01:37.555 30 467 kbps 37 614 kbps 00:20:59.591 33 855 kbps 00:20:15.756 32 115 kbps 00:20:27.017 158 842 bytes 374 264 bytes 00:21:15.565
8 0:21:51.518 0:03:42.764 29 807 kbps 40 397 kbps 00:23:46.925 32 840 kbps 00:23:44.548 31 735 kbps 00:23:43.130 155 398 bytes 465 767 bytes 00:25:33.365
9 0:25:34.282 0:02:25.979 30 083 kbps 39 213 kbps 00:26:46.271 32 916 kbps 00:27:27.228 31 894 kbps 00:27:40.492 156 838 bytes 510 918 bytes 00:27:22.515
10 0:28:00.261 0:03:49.604 29 869 kbps 43 674 kbps 00:31:35.101 34 096 kbps 00:31:20.044 32 484 kbps 00:31:20.044 155 726 bytes 349 506 bytes 00:28:33.128
11 0:31:49.866 0:04:39.570 29 952 kbps 36 950 kbps 00:34:06.711 32 096 kbps 00:32:43.461 31 397 kbps 00:32:43.461 156 158 bytes 464 232 bytes 00:32:03.004
12 0:36:29.437 0:07:21.691 29 651 kbps 41 421 kbps 00:39:29.700 32 384 kbps 00:39:25.613 30 867 kbps 00:38:47.783 154 587 bytes 440 540 bytes 00:37:14.273
13 0:43:51.128 0:05:33.249 30 403 kbps 37 376 kbps 00:48:02.754 33 006 kbps 00:47:04.863 32 646 kbps 00:47:50.993 158 506 bytes 532 428 bytes 00:44:55.109
14 0:49:24.378 0:01:19.871 29 918 kbps 36 253 kbps 00:50:25.397 31 322 kbps 00:50:21.601 31 014 kbps 00:50:13.051 155 980 bytes 473 996 bytes 00:50:21.643
15 0:50:44.249 0:03:08.271 30 258 kbps 39 002 kbps 00:51:58.198 32 552 kbps 00:51:58.198 32 126 kbps 00:51:58.198 157 749 bytes 375 902 bytes 00:52:20.971
16 0:53:52.520 0:01:44.729 30 602 kbps 36 630 kbps 00:55:36.249 32 338 kbps 00:54:49.202 31 853 kbps 00:54:44.531 159 543 bytes 354 153 bytes 00:55:21.359
17 0:55:37.250 0:00:50.675 29 818 kbps 36 081 kbps 00:55:52.182 31 518 kbps 00:56:01.900 30 733 kbps 00:55:56.895 155 458 bytes 541 235 bytes 00:55:47.218
18 0:56:27.926 0:03:34.088 30 387 kbps 38 266 kbps 00:56:49.823 32 991 kbps 00:59:08.836 31 856 kbps 00:59:05.625 158 425 bytes 374 365 bytes 00:57:23.398
19 1:00:02.015 0:06:22.381 31 328 kbps 46 717 kbps 01:04:36.038 35 028 kbps 01:01:39.320 33 795 kbps 01:01:08.748 163 330 bytes 419 478 bytes 01:00:23.369
20 1:06:24.397 0:01:37.055 29 742 kbps 39 322 kbps 01:06:31.529 32 056 kbps 01:06:30.778 31 110 kbps 01:06:30.778 155 061 bytes 557 580 bytes 01:07:23.497
21 1:08:01.452 0:03:25.121 31 003 kbps 40 828 kbps 01:09:58.861 34 391 kbps 01:09:55.399 33 073 kbps 01:09:32.585 161 636 bytes 471 725 bytes 01:11:10.140
22 1:11:26.573 0:01:45.146 30 167 kbps 40 141 kbps 01:13:05.589 33 263 kbps 01:11:48.679 31 798 kbps 01:11:43.841 157 275 bytes 669 205 bytes 01:12:04.486
23 1:13:11.720 0:06:02.487 30 574 kbps 44 774 kbps 01:14:13.699 33 082 kbps 01:15:45.832 32 388 kbps 01:15:44.373 159 398 bytes 453 763 bytes 01:14:13.740
24 1:19:14.207 0:01:25.085 29 584 kbps 36 433 kbps 01:19:17.502 32 667 kbps 01:19:17.085 31 262 kbps 01:19:16.293 154 239 bytes 458 628 bytes 01:20:01.797
25 1:20:39.292 0:00:34.743 29 675 kbps 36 163 kbps 01:21:11.283 32 269 kbps 01:21:09.030 30 766 kbps 01:21:03.984 154 714 bytes 360 996 bytes 01:20:51.054
26 1:21:14.035 0:02:29.524 29 412 kbps 36 980 kbps 01:23:36.302 31 071 kbps 01:23:10.986 30 545 kbps 01:23:27.669 153 339 bytes 461 046 bytes 01:22:35.450
27 1:23:43.560 0:02:31.985 29 796 kbps 37 313 kbps 01:23:48.773 32 527 kbps 01:26:08.413 31 204 kbps 01:25:13.274 155 341 bytes 408 741 bytes 01:23:58.867
28 1:26:15.545 0:04:38.486 30 733 kbps 40 092 kbps 01:30:24.836 34 458 kbps 01:30:31.801 33 806 kbps 01:30:31.968 160 227 bytes 518 890 bytes 01:29:32.658
29 1:30:54.031 0:02:26.354 30 921 kbps 40 791 kbps 01:32:16.989 34 278 kbps 01:33:05.037 33 651 kbps 01:33:03.661 161 206 bytes 517 942 bytes 01:32:36.884
30 1:33:20.386 0:04:45.285 30 292 kbps 36 642 kbps 01:36:20.983 32 820 kbps 01:35:55.541 32 348 kbps 01:36:07.052 157 929 bytes 511 425 bytes 01:37:16.413
31 1:38:05.671 0:00:52.552 30 417 kbps 36 234 kbps 01:38:07.256 32 256 kbps 01:38:16.724 31 261 kbps 01:38:11.719 158 578 bytes 464 411 bytes 01:38:32.740
32 1:38:58.223 0:00:40.540 30 198 kbps 37 241 kbps 01:39:31.423 31 350 kbps 01:39:29.922 30 861 kbps 01:39:00.559 157 438 bytes 457 887 bytes 01:39:16.325
33 1:39:38.764 0:02:03.790 30 243 kbps 38 306 kbps 01:41:01.889 31 881 kbps 01:40:52.379 31 161 kbps 01:40:16.552 157 674 bytes 512 736 bytes 01:41:42.262
34 1:41:42.554 0:02:29.858 29 638 kbps 37 512 kbps 01:42:40.112 31 713 kbps 01:41:44.014 30 783 kbps 01:41:44.014 154 519 bytes 392 517 bytes 01:42:25.597
35 1:44:12.412 0:01:39.682 30 648 kbps 37 514 kbps 01:44:57.207 32 290 kbps 01:45:44.129 31 331 kbps 01:44:24.424 159 786 bytes 425 835 bytes 01:44:57.249
36 1:45:52.095 0:02:24.144 30 010 kbps 45 644 kbps 01:48:12.110 34 514 kbps 01:46:22.292 32 208 kbps 01:46:16.912 156 458 bytes 442 964 bytes 01:45:52.763
37 1:48:16.239 0:08:56.285 27 323 kbps 35 238 kbps 01:48:22.746 30 179 kbps 01:57:03.516 29 263 kbps 01:52:34.080 142 449 bytes 377 394 bytes 01:54:06.047
38 1:57:12.525 0:11:38.406 28 506 kbps 35 360 kbps 01:57:16.529 29 704 kbps 01:57:16.446 29 246 kbps 01:57:16.446 148 637 bytes 389 301 bytes 02:08:43.799

STREAM DIAGNOSTICS:

File PID Type Codec Language Seconds Bitrate Bytes Packets
---- --- ---- ----- -------- -------------- -------------- ------------- -----
00000.M2TS 4113 (0x1011) 0x1B AVC 7730,848 29 873 28 867 549 897 156 997 869
00000.M2TS 4352 (0x1100) 0x86 DTS-HD MA eng (English) 7730,848 4 519 4 367 290 216 24 940 584
00000.M2TS 4353 (0x1101) 0x81 AC3 rus (Russian) 7730,848 448 432 988 416 2 416 230
00000.M2TS 4354 (0x1102) 0x86 DTS-HD MA rus (Russian) 7730,848 4 529 4 376 773 152 24 992 760
00000.M2TS 4355 (0x1103) 0x81 AC3 eng (English) 7730,848 192 185 567 232 1 208 120
00000.M2TS 4356 (0x1104) 0x81 AC3 eng (English) 7730,848 192 185 567 232 1 208 120
00000.M2TS 4357 (0x1105) 0x81 AC3 eng (English) 7730,848 192 185 567 232 1 208 120
00000.M2TS 4358 (0x1106) 0x81 AC3 eng (English) 7730,848 192 185 567 232 1 208 120
00000.M2TS 4359 (0x1107) 0x81 AC3-EX rus (Russian) 7730,848 448 432 588 800 2 414 000
00000.M2TS 4608 (0x1200) 0x90 PGS eng (English) 7730,848 18 17 225 043 100 440
00000.M2TS 4609 (0x1201) 0x90 PGS zho (Chinese) 7730,848 14 13 915 389 81 998
00000.M2TS 4610 (0x1202) 0x90 PGS kor (Korean) 7730,848 13 12 823 326 76 062
00000.M2TS 4611 (0x1203) 0x90 PGS zho (Chinese) 7730,848 14 13 175 551 77 989
00000.M2TS 4612 (0x1204) 0x90 PGS ces (Czech) 7730,848 14 13 996 132 82 347
00000.M2TS 4613 (0x1205) 0x90 PGS heb (Hebrew) 7730,848 12 11 408 413 68 339
00000.M2TS 4614 (0x1206) 0x90 PGS pol (Polish) 7730,848 14 13 768 730 81 193
00000.M2TS 4615 (0x1207) 0x90 PGS rus (Russian) 7730,848 21 19 834 989 114 951
00000.M2TS 4616 (0x1208) 0x90 PGS rus (Russian) 7730,848 21 20 200 888 117 000
00000.M2TS 4617 (0x1209) 0x90 PGS eng (English) 7730,848 5 5 099 008 41 122
00000.M2TS 4618 (0x120A) 0x90 PGS zho (Chinese) 7730,848 0 6 762 44
00000.M2TS 4619 (0x120B) 0x90 PGS kor (Korean) 7730,848 0 6 762 44
00000.M2TS 4620 (0x120C) 0x90 PGS eng (English) 7730,848 6 6 125 527 46 995
00000.M2TS 4621 (0x120D) 0x90 PGS zho (Chinese) 7730,848 0 6 762 44
00000.M2TS 4622 (0x120E) 0x90 PGS kor (Korean) 7730,848 0 6 762 44
00000.M2TS 4623 (0x120F) 0x90 PGS eng (English) 7730,848 5 4 413 912 35 357
00000.M2TS 4624 (0x1210) 0x90 PGS zho (Chinese) 7730,848 0 6 762 44
00000.M2TS 4625 (0x1211) 0x90 PGS kor (Korean) 7730,848 0 6 762 44
00000.M2TS 4626 (0x1212) 0x90 PGS eng (English) 7730,848 6 6 016 057 51 496
00000.M2TS 4627 (0x1213) 0x90 PGS zho (Chinese) 7730,848 0 6 762 44
00000.M2TS 4628 (0x1214) 0x90 PGS kor (Korean) 7730,848 0 6 762 44
00000.M2TS 4629 (0x1215) 0x90 PGS eng (English) 7730,848 1 747 710 4 381
00000.M2TS 4630 (0x1216) 0x90 PGS pol (Polish) 7730,848 0 6 762 44
00000.M2TS 4631 (0x1217) 0x90 PGS rus (Russian) 7730,848 1 1 011 746 5 870
Свернуть
Изображение

Страна: США, Новая Зеландия
Жанр: Боевик, фэнтези, приключения
Год выпуска: 2003
Продолжительность: 02:07:40 + 02:15:35
Постер
Изображение

Свернуть
Перевод: Дубляж (со вставками MVO "Позитив-мультимедиа"), закадровый многоголосый (2 шт.)
Cубтитры: русские
Режиссер: Питер Джексон / Peter Jackson

В ролях: Элайджа Вуд, Йен МакКеллен, Вигго Мортенсен, Шон Эстин, Билли Бойд, Лив Тайлер, Доминик Монахэн, Орландо Блум, Джон Риз-Дэйвис, Иэн Холм, Кейт Бланшетт, Хьюго Уивинг, Бернард Хилл, Миранда Отто, Карл Урбан, Дэвид Уэнэм, Джон Ноубл, Энди Серкис, Ноэл Эпплби, Александра Эстин, Джон Бах, Шон Бин, Мартон Чокаш, Брюс Хопкинс

Описание: Последняя часть трилогии о Кольце Всевластия и о героях, взявших на себя бремя спасения Средиземья. Повелитель сил Тьмы Саурон направляет свои бесчисленные рати под стены Минас-Тирита, крепости Последней Надежды. Он предвкушает близкую победу, но именно это и мешает ему заметить две крохотные фигурки — хоббитов, приближающихся к Роковой Горе, где им предстоит уничтожить Кольцо Всевластия. Улыбнется ли им счастье?..
Тип релиза: Blu-ray disc (custom)
Контейнер: BDMV
Видео:
DISC1: 1920х1080p / 23,976 fps / 16:9 / High Profile 4.1 / 30236 kbps
DISC2: 1920х1080p / 23,976 fps / 16:9 / High Profile 4.1 / 30703 kbps

Аудио:
DISC1:
DTS-HD Master Audio English 4476 kbps 6.1 / 48 kHz / 4476 kbps / 24-bit (DTS Core: 6.1-ES / 48 kHz / 1509 kbps / 24-bit)
DTS-HD Master Audio Russian 4496 kbps 6.1 / 48 kHz / 4496 kbps / 24-bit (DTS Core: 6.1-ES / 48 kHz / 1509 kbps / 24-bit) (MVO - Superbit)
Dolby Digital Audio Russian 448 kbps 5.1 / 48 kHz / 448 kbps / DN -4dB (Дубляж)
Dolby Digital EX Audio Russian 448 kbps 5.1-EX / 48 kHz / 448 kbps / DN -4dB (MVO - Позитив)
Dolby Digital Audio English 128 kbps 2.0 / 48 kHz / 128 kbps / DN -4dB / Dolby Surround
Dolby Digital Audio English 128 kbps 2.0 / 48 kHz / 128 kbps / DN -4dB / Dolby Surround
Dolby Digital Audio English 128 kbps 2.0 / 48 kHz / 128 kbps / DN -4dB / Dolby Surround
Dolby Digital Audio English 128 kbps 2.0 / 48 kHz / 128 kbps / DN -4dB / Dolby Surround

DISC2
DTS-HD Master Audio English 4625 kbps 6.1 / 48 kHz / 4625 kbps / 24-bit (DTS Core: 6.1-ES / 48 kHz / 1509 kbps / 24-bit)
DTS-HD Master Audio Russian 4632 kbps 6.1 / 48 kHz / 4632 kbps / 24-bit (DTS Core: 6.1-ES / 48 kHz / 1509 kbps / 24-bit) (MVO - Superbit)
Dolby Digital Audio Russian 448 kbps 5.1 / 48 kHz / 448 kbps / DN -4dB (Дубляж)
Dolby Digital EX Audio Russian 448 kbps 5.1-EX / 48 kHz / 448 kbps / DN -4dB (MVO - Позитив)
Dolby Digital Audio English 192 kbps 2.0 / 48 kHz / 192 kbps / DN -4dB / Dolby Surround
Dolby Digital Audio English 192 kbps 2.0 / 48 kHz / 192 kbps / DN -4dB / Dolby Surround
Dolby Digital Audio English 192 kbps 2.0 / 48 kHz / 192 kbps / DN -4dB / Dolby Surround
Dolby Digital Audio English 192 kbps 2.0 / 48 kHz / 192 kbps / DN -4dB / Dolby Surround
Свернуть

Субтитры: English, Chinese, Czech, Korean, Polish, Russian (Позитив), Russian (от фанов фильма), Russian (Эльфийская речь)
Скриншоты
Изображение
Изображение
Изображение
Изображение
Свернуть
BDInfo Disc 3-1
DISC INFO:

Disc Title: DISC1
Disc Size: 42 018 785 091 bytes
Protection: AACS
BD-Java: Yes
BDInfo: 0.5.6

PLAYLIST REPORT:

Name: 00100.MPLS
Length: 2:07:40 (h:m:s)
Size: 41 407 770 624 bytes
Total Bitrate: 43,24 Mbps

VIDEO:

Codec Bitrate Description
----- ------- -----------
MPEG-4 AVC Video 30236 kbps 1080p / 23,976 fps / 16:9 / High Profile 4.1

AUDIO:

Codec Language Bitrate Description
----- -------- ------- -----------
DTS-HD Master Audio English 4476 kbps 6.1 / 48 kHz / 4476 kbps / 24-bit (DTS Core: 6.1-ES / 48 kHz / 1509 kbps / 24-bit)
DTS-HD Master Audio Russian 4496 kbps 6.1 / 48 kHz / 4496 kbps / 24-bit (DTS Core: 6.1-ES / 48 kHz / 1509 kbps / 24-bit)
Dolby Digital Audio Russian 448 kbps 5.1 / 48 kHz / 448 kbps / DN -4dB
Dolby Digital EX Audio Russian 448 kbps 5.1-EX / 48 kHz / 448 kbps / DN -4dB
Dolby Digital Audio English 128 kbps 2.0 / 48 kHz / 128 kbps
Dolby Digital Audio English 128 kbps 2.0 / 48 kHz / 128 kbps
Dolby Digital Audio English 128 kbps 2.0 / 48 kHz / 128 kbps
Dolby Digital Audio English 128 kbps 2.0 / 48 kHz / 128 kbps

SUBTITLES:

Codec Language Bitrate Description
----- -------- ------- -----------
Presentation Graphics English 21,880 kbps
Presentation Graphics English 9,446 kbps
Presentation Graphics English 9,945 kbps
Presentation Graphics English 8,623 kbps
Presentation Graphics English 5,429 kbps
Presentation Graphics English 0,028 kbps
Presentation Graphics Chinese 17,750 kbps
Presentation Graphics Chinese 17,915 kbps
Presentation Graphics Chinese 0,007 kbps
Presentation Graphics Chinese 0,007 kbps
Presentation Graphics Chinese 0,007 kbps
Presentation Graphics Chinese 0,007 kbps
Presentation Graphics Czech 17,695 kbps
Presentation Graphics Korean 15,836 kbps
Presentation Graphics Korean 0,007 kbps
Presentation Graphics Korean 0,007 kbps
Presentation Graphics Korean 0,007 kbps
Presentation Graphics Korean 0,007 kbps
Presentation Graphics Polish 17,744 kbps
Presentation Graphics Polish 0,007 kbps
Presentation Graphics Russian 24,217 kbps
Presentation Graphics Russian 24,218 kbps
Presentation Graphics Russian 0,059 kbps

FILES:

Name Time In Length Size Total Bitrate
---- ------- ------ ---- -------------
00000.M2TS 0:00:00.000 2:07:40.235 41 407 770 624 43 244

CHAPTERS:

Number Time In Length Avg Video Rate Max 1-Sec Rate Max 1-Sec Time Max 5-Sec Rate Max 5-Sec Time Max 10Sec Rate Max 10Sec Time Avg Frame Size Max Frame Size Max Frame Time
------ ------- ------ -------------- -------------- -------------- -------------- -------------- -------------- -------------- -------------- -------------- --------------
1 0:00:00.000 0:06:24.342 28 045 kbps 49 101 kbps 00:05:48.848 35 914 kbps 00:01:28.046 35 391 kbps 00:01:27.545 146 198 bytes 670 722 bytes 00:05:56.439
2 0:06:24.342 0:02:57.051 30 149 kbps 41 978 kbps 00:07:33.452 36 307 kbps 00:07:29.448 33 123 kbps 00:07:24.485 157 184 bytes 610 635 bytes 00:06:26.803
3 0:09:21.394 0:02:00.453 31 120 kbps 39 493 kbps 00:09:50.715 35 022 kbps 00:09:48.296 33 587 kbps 00:10:48.981 162 247 bytes 537 924 bytes 00:10:16.949
4 0:11:21.847 0:07:01.462 30 935 kbps 42 810 kbps 00:17:22.207 36 084 kbps 00:17:39.767 34 356 kbps 00:17:39.850 161 282 bytes 475 714 bytes 00:12:03.723
5 0:18:23.310 0:04:41.698 30 694 kbps 40 620 kbps 00:20:31.188 34 605 kbps 00:20:31.188 33 783 kbps 00:20:31.146 160 026 bytes 524 571 bytes 00:18:31.026
6 0:23:05.008 0:03:58.321 29 883 kbps 40 798 kbps 00:23:09.846 34 902 kbps 00:23:13.225 34 109 kbps 00:23:08.845 155 796 bytes 483 689 bytes 00:23:30.951
7 0:27:03.330 0:01:57.367 30 193 kbps 41 735 kbps 00:28:06.142 33 333 kbps 00:28:05.600 32 116 kbps 00:28:05.600 157 412 bytes 417 539 bytes 00:27:43.620
8 0:29:00.697 0:08:05.735 29 998 kbps 48 112 kbps 00:30:52.600 35 746 kbps 00:30:52.684 33 743 kbps 00:30:48.513 156 394 bytes 570 506 bytes 00:36:45.995
9 0:37:06.432 0:02:56.134 29 644 kbps 43 617 kbps 00:38:17.378 34 391 kbps 00:37:34.794 33 450 kbps 00:37:30.289 154 549 bytes 556 412 bytes 00:37:14.774
10 0:40:02.566 0:02:00.662 30 212 kbps 40 761 kbps 00:41:19.101 34 822 kbps 00:41:48.631 33 972 kbps 00:41:47.922 157 511 bytes 521 491 bytes 00:41:43.876
11 0:42:03.229 0:05:48.973 29 858 kbps 44 491 kbps 00:42:19.119 35 401 kbps 00:42:15.115 34 071 kbps 00:42:10.110 155 665 bytes 547 213 bytes 00:42:49.900
12 0:47:52.202 0:02:26.437 30 917 kbps 40 798 kbps 00:50:05.544 34 784 kbps 00:50:04.292 34 435 kbps 00:50:05.544 161 188 bytes 706 762 bytes 00:48:47.424
13 0:50:18.640 0:02:00.119 31 504 kbps 39 932 kbps 00:51:13.445 34 322 kbps 00:51:45.435 33 583 kbps 00:52:04.121 164 247 bytes 668 790 bytes 00:51:48.146
14 0:52:18.760 0:03:16.571 30 225 kbps 52 132 kbps 00:53:52.479 36 320 kbps 00:53:52.437 34 180 kbps 00:53:52.395 157 577 bytes 528 462 bytes 00:54:39.150
15 0:55:35.332 0:04:01.074 29 804 kbps 44 204 kbps 00:56:36.476 36 015 kbps 00:56:05.445 33 732 kbps 00:56:36.476 155 387 bytes 501 063 bytes 00:56:49.697
16 0:59:36.406 0:00:47.297 27 908 kbps 35 287 kbps 00:59:47.917 30 411 kbps 00:59:44.664 29 055 kbps 00:59:44.581 145 499 bytes 449 944 bytes 01:00:01.764
17 1:00:23.703 0:00:26.901 28 695 kbps 35 677 kbps 01:00:40.678 30 803 kbps 01:00:39.052 29 739 kbps 01:00:40.595 149 604 bytes 473 353 bytes 01:00:27.040
18 1:00:50.605 0:03:39.469 30 072 kbps 43 368 kbps 01:03:32.475 36 855 kbps 01:03:28.429 35 479 kbps 01:01:57.714 156 779 bytes 482 080 bytes 01:01:59.507
19 1:04:30.074 0:02:45.957 28 332 kbps 43 801 kbps 01:06:36.951 35 194 kbps 01:06:36.951 34 228 kbps 01:06:36.826 147 709 bytes 516 513 bytes 01:07:11.986
20 1:07:16.031 0:03:19.282 30 500 kbps 40 365 kbps 01:10:24.929 36 960 kbps 01:10:24.929 36 445 kbps 01:10:22.426 159 015 bytes 493 540 bytes 01:09:06.642
21 1:10:35.314 0:04:19.509 32 548 kbps 45 912 kbps 01:10:58.420 37 081 kbps 01:13:03.212 36 460 kbps 01:13:45.129 169 689 bytes 514 728 bytes 01:13:54.847
22 1:14:54.823 0:02:27.146 29 184 kbps 38 664 kbps 01:16:18.907 34 575 kbps 01:16:18.907 32 024 kbps 01:16:16.863 152 150 bytes 445 565 bytes 01:16:30.335
23 1:17:21.970 0:01:59.828 29 100 kbps 37 441 kbps 01:18:02.094 34 576 kbps 01:18:00.217 32 723 kbps 01:18:00.217 151 713 bytes 519 575 bytes 01:17:33.065
24 1:19:21.798 0:00:39.289 30 410 kbps 38 609 kbps 01:19:45.071 32 766 kbps 01:19:45.071 32 231 kbps 01:19:45.071 158 543 bytes 516 249 bytes 01:19:45.113
25 1:20:01.087 0:01:25.710 28 377 kbps 36 359 kbps 01:20:24.986 29 927 kbps 01:20:42.462 29 268 kbps 01:20:42.379 147 943 bytes 486 479 bytes 01:20:24.194
26 1:21:26.798 0:02:22.141 29 524 kbps 38 056 kbps 01:23:28.461 31 472 kbps 01:23:24.457 30 760 kbps 01:23:19.452 153 925 bytes 433 743 bytes 01:21:30.135
27 1:23:48.940 0:05:19.652 31 455 kbps 44 002 kbps 01:25:52.897 35 076 kbps 01:25:39.843 33 882 kbps 01:28:10.952 163 993 bytes 471 733 bytes 01:29:07.800
28 1:29:08.593 0:04:48.997 31 159 kbps 43 775 kbps 01:33:17.592 37 608 kbps 01:32:40.513 34 852 kbps 01:32:39.470 162 451 bytes 617 017 bytes 01:33:44.660
29 1:33:57.590 0:04:10.458 30 681 kbps 39 591 kbps 01:34:18.778 34 140 kbps 01:37:23.420 33 719 kbps 01:37:22.920 159 955 bytes 666 250 bytes 01:34:49.600
30 1:38:08.048 0:04:41.656 29 638 kbps 49 255 kbps 01:38:34.825 36 091 kbps 01:38:30.738 35 115 kbps 01:38:33.115 154 521 bytes 468 581 bytes 01:38:26.901
31 1:42:49.705 0:02:44.539 29 344 kbps 37 266 kbps 01:44:24.132 34 224 kbps 01:44:34.393 33 492 kbps 01:44:33.600 152 984 bytes 438 411 bytes 01:44:31.223
32 1:45:34.244 0:01:23.208 29 959 kbps 41 282 kbps 01:46:13.533 34 288 kbps 01:46:13.533 34 026 kbps 01:46:13.158 156 193 bytes 433 225 bytes 01:46:57.411
33 1:46:57.452 0:02:26.980 29 857 kbps 42 490 kbps 01:48:42.474 35 220 kbps 01:48:40.639 33 533 kbps 01:47:18.265 155 662 bytes 500 079 bytes 01:48:08.190
34 1:49:24.432 0:01:45.563 30 104 kbps 40 458 kbps 01:49:24.432 34 180 kbps 01:50:21.031 32 347 kbps 01:49:24.432 156 947 bytes 481 978 bytes 01:50:58.818
35 1:51:09.996 0:07:29.699 30 571 kbps 45 239 kbps 01:52:12.434 36 158 kbps 01:54:09.551 34 996 kbps 01:54:09.467 159 382 bytes 556 026 bytes 01:58:39.403
36 1:58:39.695 0:09:00.539 31 178 kbps 45 849 kbps 02:02:28.841 36 458 kbps 02:01:25.778 34 696 kbps 02:05:58.092 162 570 bytes 606 456 bytes 01:59:35.376

STREAM DIAGNOSTICS:

File PID Type Codec Language Seconds Bitrate Bytes Packets
---- --- ---- ----- -------- -------------- -------------- ------------- -----
00000.M2TS 4113 (0x1011) 0x1B AVC 7660,153 30 236 28 951 646 993 157 453 704
00000.M2TS 4352 (0x1100) 0x86 DTS-HD MA eng (English) 7660,153 4 476 4 285 490 416 24 484 327
00000.M2TS 4353 (0x1101) 0x81 AC3 rus (Russian) 7660,153 448 429 035 264 2 394 170
00000.M2TS 4354 (0x1102) 0x86 DTS-HD MA rus (Russian) 7660,153 4 496 4 304 869 856 24 590 092
00000.M2TS 4355 (0x1103) 0x81 AC3 eng (English) 7660,153 128 122 582 528 718 257
00000.M2TS 4356 (0x1104) 0x81 AC3 eng (English) 7660,153 128 122 582 016 718 254
00000.M2TS 4357 (0x1105) 0x81 AC3 eng (English) 7660,153 128 122 582 528 718 257
00000.M2TS 4358 (0x1106) 0x81 AC3 eng (English) 7660,153 128 122 581 504 718 251
00000.M2TS 4359 (0x1107) 0x81 AC3-EX rus (Russian) 7660,153 448 429 035 264 2 394 170
00000.M2TS 4608 (0x1200) 0x90 PGS eng (English) 7660,153 22 20 950 788 122 292
00000.M2TS 4609 (0x1201) 0x90 PGS zho (Chinese) 7660,153 18 16 996 175 99 821
00000.M2TS 4610 (0x1202) 0x90 PGS kor (Korean) 7660,153 16 15 163 110 89 844
00000.M2TS 4611 (0x1203) 0x90 PGS zho (Chinese) 7660,153 18 17 153 905 100 675
00000.M2TS 4612 (0x1204) 0x90 PGS ces (Czech) 7660,153 18 16 943 384 99 452
00000.M2TS 4613 (0x1205) 0x90 PGS pol (Polish) 7660,153 18 16 990 643 99 578
00000.M2TS 4614 (0x1206) 0x90 PGS rus (Russian) 7660,153 24 23 188 396 134 439
00000.M2TS 4615 (0x1207) 0x90 PGS rus (Russian) 7660,153 24 23 189 895 134 458
00000.M2TS 4616 (0x1208) 0x90 PGS eng (English) 7660,153 5 5 198 148 41 852
00000.M2TS 4617 (0x1209) 0x90 PGS zho (Chinese) 7660,153 0 6 762 44
00000.M2TS 4618 (0x120A) 0x90 PGS kor (Korean) 7660,153 0 6 762 44
00000.M2TS 4619 (0x120B) 0x90 PGS eng (English) 7660,153 9 9 044 584 69 185
00000.M2TS 4620 (0x120C) 0x90 PGS zho (Chinese) 7660,153 0 6 762 44
00000.M2TS 4621 (0x120D) 0x90 PGS kor (Korean) 7660,153 0 6 762 44
00000.M2TS 4622 (0x120E) 0x90 PGS eng (English) 7660,153 9 8 256 341 65 086
00000.M2TS 4623 (0x120F) 0x90 PGS zho (Chinese) 7660,153 0 6 762 44
00000.M2TS 4624 (0x1210) 0x90 PGS kor (Korean) 7660,153 0 6 762 44
00000.M2TS 4625 (0x1211) 0x90 PGS eng (English) 7660,153 10 9 522 742 80 230
00000.M2TS 4626 (0x1212) 0x90 PGS zho (Chinese) 7660,153 0 6 762 44
00000.M2TS 4627 (0x1213) 0x90 PGS kor (Korean) 7660,153 0 6 762 44
00000.M2TS 4628 (0x1214) 0x90 PGS eng (English) 7660,153 0 26 642 159
00000.M2TS 4629 (0x1215) 0x90 PGS pol (Polish) 7660,153 0 6 762 44
00000.M2TS 4630 (0x1216) 0x90 PGS rus (Russian) 7660,153 0 56 412 329
Свернуть
BDInfo Disc 3-2
DISC INFO:

Disc Title: DISC2
Disc Size: 45 710 901 008 bytes
Protection: AACS
BD-Java: Yes
BDInfo: 0.5.6

PLAYLIST REPORT:

Name: 00100.MPLS
Length: 2:15:35 (h:m:s)
Size: 45 069 723 648 bytes
Total Bitrate: 44,32 Mbps

VIDEO:

Codec Bitrate Description
----- ------- -----------
MPEG-4 AVC Video 30703 kbps 1080p / 23,976 fps / 16:9 / High Profile 4.1

AUDIO:

Codec Language Bitrate Description
----- -------- ------- -----------
DTS-HD Master Audio English 4625 kbps 6.1 / 48 kHz / 4625 kbps / 24-bit (DTS Core: 6.1-ES / 48 kHz / 1509 kbps / 24-bit)
DTS-HD Master Audio Russian 4632 kbps 6.1 / 48 kHz / 4632 kbps / 24-bit (DTS Core: 6.1-ES / 48 kHz / 1509 kbps / 24-bit)
Dolby Digital Audio Russian 448 kbps 5.1 / 48 kHz / 448 kbps / DN -4dB
Dolby Digital EX Audio Russian 448 kbps 5.1-EX / 48 kHz / 448 kbps / DN -4dB
Dolby Digital Audio English 192 kbps 2.0 / 48 kHz / 192 kbps / DN -4dB / Dolby Surround
Dolby Digital Audio English 192 kbps 2.0 / 48 kHz / 192 kbps / DN -4dB / Dolby Surround
Dolby Digital Audio English 192 kbps 2.0 / 48 kHz / 192 kbps / DN -4dB / Dolby Surround
Dolby Digital Audio English 192 kbps 2.0 / 48 kHz / 192 kbps / DN -4dB / Dolby Surround

SUBTITLES:

Codec Language Bitrate Description
----- -------- ------- -----------
Presentation Graphics English 11,167 kbps
Presentation Graphics English 8,066 kbps
Presentation Graphics English 9,735 kbps
Presentation Graphics English 7,131 kbps
Presentation Graphics English 5,783 kbps
Presentation Graphics English 0,019 kbps
Presentation Graphics Chinese 8,410 kbps
Presentation Graphics Chinese 8,568 kbps
Presentation Graphics Chinese 0,007 kbps
Presentation Graphics Chinese 0,007 kbps
Presentation Graphics Chinese 0,007 kbps
Presentation Graphics Chinese 0,007 kbps
Presentation Graphics Czech 8,430 kbps
Presentation Graphics Korean 7,869 kbps
Presentation Graphics Korean 0,007 kbps
Presentation Graphics Korean 0,007 kbps
Presentation Graphics Korean 0,007 kbps
Presentation Graphics Korean 0,007 kbps
Presentation Graphics Polish 8,611 kbps
Presentation Graphics Polish 0,007 kbps
Presentation Graphics Russian 10,918 kbps
Presentation Graphics Russian 10,993 kbps
Presentation Graphics Russian 0,088 kbps

FILES:

Name Time In Length Size Total Bitrate
---- ------- ------ ---- -------------
00005.M2TS 0:00:00.000 2:15:35.460 45 069 723 648 44 319

CHAPTERS:

Number Time In Length Avg Video Rate Max 1-Sec Rate Max 1-Sec Time Max 5-Sec Rate Max 5-Sec Time Max 10Sec Rate Max 10Sec Time Avg Frame Size Max Frame Size Max Frame Time
------ ------- ------ -------------- -------------- -------------- -------------- -------------- -------------- -------------- -------------- -------------- --------------
1 0:00:00.000 0:01:02.479 31 898 kbps 40 584 kbps 00:00:00.959 34 930 kbps 00:00:00.959 33 728 kbps 00:00:35.452 166 189 bytes 516 015 bytes 00:00:35.493
2 0:01:02.479 0:09:07.672 32 133 kbps 43 126 kbps 00:06:55.164 35 986 kbps 00:06:05.782 35 279 kbps 00:02:16.177 167 525 bytes 569 851 bytes 00:06:24.217
3 0:10:10.151 0:01:50.318 28 605 kbps 35 543 kbps 00:11:37.530 30 140 kbps 00:10:39.555 29 586 kbps 00:11:45.830 149 132 bytes 498 205 bytes 00:10:38.054
4 0:12:00.469 0:00:36.369 31 845 kbps 45 735 kbps 00:12:04.265 34 829 kbps 00:12:08.644 34 379 kbps 00:12:03.472 166 027 bytes 483 788 bytes 00:12:36.839
5 0:12:36.839 0:01:33.635 29 523 kbps 39 537 kbps 00:13:02.615 35 597 kbps 00:13:14.126 34 234 kbps 00:13:11.832 153 919 bytes 470 275 bytes 00:12:37.631
6 0:14:10.474 0:01:06.816 31 943 kbps 42 834 kbps 00:15:15.289 35 177 kbps 00:14:49.513 33 789 kbps 00:15:07.031 166 536 bytes 448 933 bytes 00:14:38.460
7 0:15:17.291 0:06:01.736 32 598 kbps 43 939 kbps 00:20:34.399 36 359 kbps 00:18:59.138 34 652 kbps 00:18:33.112 169 953 bytes 600 021 bytes 00:15:31.639
8 0:21:19.027 0:01:05.315 32 155 kbps 39 216 kbps 00:21:28.954 34 496 kbps 00:21:43.635 34 008 kbps 00:21:19.945 167 642 bytes 468 704 bytes 00:22:14.332
9 0:22:24.342 0:02:25.019 31 420 kbps 45 473 kbps 00:24:25.088 35 190 kbps 00:23:05.384 34 335 kbps 00:24:04.109 163 810 bytes 611 206 bytes 00:24:25.922
10 0:24:49.362 0:04:14.420 30 839 kbps 43 258 kbps 00:27:47.832 36 466 kbps 00:28:44.639 35 131 kbps 00:28:44.514 160 779 bytes 551 114 bytes 00:26:29.045
11 0:29:03.783 0:02:07.085 31 352 kbps 45 274 kbps 00:30:53.768 36 201 kbps 00:30:50.014 34 949 kbps 00:30:45.134 163 454 bytes 487 440 bytes 00:31:06.447
12 0:31:10.868 0:04:55.545 31 551 kbps 45 243 kbps 00:31:22.422 36 050 kbps 00:31:21.754 35 128 kbps 00:35:43.516 164 495 bytes 396 045 bytes 00:36:06.414
13 0:36:06.414 0:01:30.423 28 539 kbps 36 808 kbps 00:36:11.961 33 023 kbps 00:36:08.040 30 904 kbps 00:36:07.123 148 791 bytes 438 049 bytes 00:36:14.589
14 0:37:36.837 0:01:45.939 31 250 kbps 44 821 kbps 00:39:04.759 35 439 kbps 00:37:47.848 34 846 kbps 00:37:42.510 162 921 bytes 457 370 bytes 00:38:08.244
15 0:39:22.777 0:00:52.427 30 980 kbps 38 053 kbps 00:39:56.435 35 014 kbps 00:39:52.473 34 222 kbps 00:39:51.722 161 516 bytes 481 192 bytes 00:40:15.204
16 0:40:15.204 0:00:44.252 33 118 kbps 39 613 kbps 00:40:46.610 35 040 kbps 00:40:26.966 33 856 kbps 00:40:26.090 172 662 bytes 488 032 bytes 00:40:56.620
17 0:40:59.457 0:02:35.697 31 844 kbps 43 835 kbps 00:42:57.950 37 304 kbps 00:41:39.205 35 695 kbps 00:41:39.622 166 020 bytes 546 531 bytes 00:43:35.154
18 0:43:35.154 0:02:02.705 28 876 kbps 43 006 kbps 00:45:18.674 35 014 kbps 00:45:18.674 34 010 kbps 00:45:18.382 150 547 bytes 609 606 bytes 00:45:34.898
19 0:45:37.860 0:01:06.941 29 368 kbps 41 981 kbps 00:46:06.930 35 966 kbps 00:46:05.763 34 506 kbps 00:46:05.262 153 110 bytes 435 544 bytes 00:46:15.481
20 0:46:44.801 0:02:16.010 29 773 kbps 42 291 kbps 00:48:54.514 34 463 kbps 00:48:54.473 32 545 kbps 00:47:46.446 155 220 bytes 488 135 bytes 00:46:56.688
21 0:49:00.812 0:00:52.051 21 526 kbps 26 622 kbps 00:49:17.537 23 075 kbps 00:49:13.492 22 609 kbps 00:49:35.722 112 229 bytes 444 861 bytes 00:49:52.864
22 0:49:52.864 0:06:55.915 29 947 kbps 46 239 kbps 00:51:04.978 35 240 kbps 00:54:44.406 34 111 kbps 00:49:56.868 156 131 bytes 539 273 bytes 00:52:51.668
23 0:56:48.780 0:01:42.352 30 688 kbps 50 728 kbps 00:57:45.170 34 465 kbps 00:57:44.919 33 242 kbps 00:58:10.945 159 992 bytes 536 442 bytes 00:57:46.004
24 0:58:31.132 0:01:29.088 31 742 kbps 48 354 kbps 00:59:42.161 36 066 kbps 00:59:38.074 34 585 kbps 00:59:33.111 165 489 bytes 569 376 bytes 00:59:37.407
25 1:00:00.221 0:00:50.133 32 067 kbps 42 871 kbps 01:00:04.517 34 776 kbps 01:00:29.417 34 002 kbps 01:00:29.417 167 182 bytes 525 647 bytes 01:00:49.937
26 1:00:50.355 0:03:41.387 29 739 kbps 40 768 kbps 01:01:11.000 35 284 kbps 01:01:10.208 34 003 kbps 01:01:09.332 155 048 bytes 555 314 bytes 01:01:11.042
27 1:04:31.742 0:04:11.709 29 381 kbps 42 448 kbps 01:05:40.978 35 096 kbps 01:08:25.643 33 934 kbps 01:08:19.637 153 178 bytes 491 212 bytes 01:06:43.791
28 1:08:43.452 0:03:15.904 30 739 kbps 41 600 kbps 01:09:00.886 35 426 kbps 01:10:38.233 34 541 kbps 01:10:38.234 160 258 bytes 636 759 bytes 01:09:27.079
29 1:11:59.356 0:03:33.796 30 795 kbps 42 172 kbps 01:13:31.240 34 701 kbps 01:13:31.240 33 743 kbps 01:12:41.440 160 550 bytes 546 359 bytes 01:14:12.865
30 1:15:33.153 0:02:12.799 29 103 kbps 41 194 kbps 01:17:38.820 32 917 kbps 01:15:36.698 31 605 kbps 01:15:34.780 151 729 bytes 577 279 bytes 01:17:42.240
31 1:17:45.952 0:01:03.104 31 274 kbps 44 639 kbps 01:18:42.467 34 876 kbps 01:18:34.543 34 159 kbps 01:18:29.413 163 047 bytes 508 325 bytes 01:18:11.770
32 1:18:49.057 0:01:56.074 30 088 kbps 36 708 kbps 01:20:08.804 33 464 kbps 01:20:08.220 32 901 kbps 01:20:08.220 156 867 bytes 489 148 bytes 01:19:08.660
33 1:20:45.131 0:00:34.325 31 529 kbps 41 576 kbps 01:21:05.068 34 813 kbps 01:21:01.231 33 179 kbps 01:20:59.020 164 380 bytes 384 515 bytes 01:21:05.110
34 1:21:19.457 0:05:38.254 32 753 kbps 51 389 kbps 01:23:50.650 36 610 kbps 01:23:46.604 34 594 kbps 01:23:29.045 170 762 bytes 533 158 bytes 01:23:42.600
35 1:26:57.712 0:02:13.383 31 428 kbps 39 658 kbps 01:28:49.949 36 047 kbps 01:28:49.782 35 149 kbps 01:28:28.011 163 852 bytes 530 806 bytes 01:28:47.530
36 1:29:11.095 0:03:29.000 30 837 kbps 40 203 kbps 01:31:38.326 34 630 kbps 01:29:17.977 34 184 kbps 01:29:12.722 160 772 bytes 533 482 bytes 01:29:25.526
37 1:32:40.096 0:02:23.101 32 070 kbps 44 071 kbps 01:34:35.044 35 525 kbps 01:32:40.179 34 130 kbps 01:34:11.187 167 201 bytes 534 588 bytes 01:35:01.153
38 1:35:03.197 0:04:53.042 31 706 kbps 44 804 kbps 01:38:31.238 36 244 kbps 01:36:55.100 34 819 kbps 01:36:49.970 165 303 bytes 570 782 bytes 01:35:21.674
39 1:39:56.240 0:04:41.906 31 126 kbps 43 786 kbps 01:43:39.796 35 784 kbps 01:43:35.792 34 256 kbps 01:42:06.787 162 276 bytes 463 800 bytes 01:43:39.379
40 1:44:38.146 0:09:18.599 29 147 kbps 43 636 kbps 01:52:22.610 34 271 kbps 01:46:14.993 33 611 kbps 01:46:09.905 151 960 bytes 561 262 bytes 01:53:16.664
41 1:53:56.746 0:11:07.416 26 777 kbps 42 518 kbps 01:53:56.996 32 857 kbps 02:02:59.330 32 148 kbps 02:02:57.661 139 601 bytes 783 155 bytes 01:56:58.261
42 2:05:04.163 0:10:31.297 33 593 kbps 38 666 kbps 02:08:54.268 35 605 kbps 02:08:13.727 35 186 kbps 02:10:28.362 175 161 bytes 731 420 bytes 02:05:07.500

STREAM DIAGNOSTICS:

File PID Type Codec Language Seconds Bitrate Bytes Packets
---- --- ---- ----- -------- -------------- -------------- ------------- -----
00005.M2TS 4113 (0x1011) 0x1B AVC 8135,377 30 704 31 223 385 290 169 806 979
00005.M2TS 4352 (0x1100) 0x86 DTS-HD MA eng (English) 8135,377 4 625 4 703 087 772 26 829 070
00005.M2TS 4353 (0x1101) 0x81 AC3 rus (Russian) 8135,377 448 455 648 256 2 542 680
00005.M2TS 4354 (0x1102) 0x86 DTS-HD MA rus (Russian) 8135,377 4 632 4 710 374 796 26 868 228
00005.M2TS 4355 (0x1103) 0x81 AC3 eng (English) 8135,377 192 195 277 824 1 271 340
00005.M2TS 4356 (0x1104) 0x81 AC3 eng (English) 8135,377 192 195 277 824 1 271 340
00005.M2TS 4357 (0x1105) 0x81 AC3 eng (English) 8135,377 192 195 277 824 1 271 340
00005.M2TS 4358 (0x1106) 0x81 AC3 eng (English) 8135,377 192 195 277 824 1 271 340
00005.M2TS 4359 (0x1107) 0x81 AC3-EX rus (Russian) 8135,377 448 455 648 256 2 542 680
00005.M2TS 4608 (0x1200) 0x90 PGS eng (English) 8135,377 11 11 356 193 67 313
00005.M2TS 4609 (0x1201) 0x90 PGS zho (Chinese) 8135,377 8 8 552 031 51 007
00005.M2TS 4610 (0x1202) 0x90 PGS kor (Korean) 8135,377 8 8 001 895 48 016
00005.M2TS 4611 (0x1203) 0x90 PGS zho (Chinese) 8135,377 9 8 712 749 51 888
00005.M2TS 4612 (0x1204) 0x90 PGS ces (Czech) 8135,377 8 8 572 605 51 096
00005.M2TS 4613 (0x1205) 0x90 PGS pol (Polish) 8135,377 9 8 756 687 51 880
00005.M2TS 4614 (0x1206) 0x90 PGS rus (Russian) 8135,377 11 11 103 256 65 053
00005.M2TS 4615 (0x1207) 0x90 PGS rus (Russian) 8135,377 11 11 178 823 65 485
00005.M2TS 4616 (0x1208) 0x90 PGS eng (English) 8135,377 6 5 881 093 47 462
00005.M2TS 4617 (0x1209) 0x90 PGS zho (Chinese) 8135,377 0 6 762 44
00005.M2TS 4618 (0x120A) 0x90 PGS kor (Korean) 8135,377 0 6 762 44
00005.M2TS 4619 (0x120B) 0x90 PGS eng (English) 8135,377 8 8 202 807 62 804
00005.M2TS 4620 (0x120C) 0x90 PGS zho (Chinese) 8135,377 0 6 762 44
00005.M2TS 4621 (0x120D) 0x90 PGS kor (Korean) 8135,377 0 6 762 44
00005.M2TS 4622 (0x120E) 0x90 PGS eng (English) 8135,377 7 7 252 164 57 195
00005.M2TS 4623 (0x120F) 0x90 PGS zho (Chinese) 8135,377 0 6 762 44
00005.M2TS 4624 (0x1210) 0x90 PGS kor (Korean) 8135,377 0 6 762 44
00005.M2TS 4625 (0x1211) 0x90 PGS eng (English) 8135,377 10 9 900 236 83 757
00005.M2TS 4626 (0x1212) 0x90 PGS zho (Chinese) 8135,377 0 6 762 44
00005.M2TS 4627 (0x1213) 0x90 PGS kor (Korean) 8135,377 0 6 762 44
00005.M2TS 4628 (0x1214) 0x90 PGS eng (English) 8135,377 0 19 667 120
00005.M2TS 4629 (0x1215) 0x90 PGS pol (Polish) 8135,377 0 6 762 44
00005.M2TS 4630 (0x1216) 0x90 PGS rus (Russian) 8135,377 0 89 460 515
Свернуть


Последний раз редактировалось sanYOOkk!! 2011-12-25 19:45, всего редактировалось 1 раз.
Не в сети
Профиль  
 Добавлено: 2011-07-28 19:49 (спустя 2 дня 5 часов)
Аватара пользователя
Стаж: 8 лет 3 месяца
Возраст: 43
Сообщений: 3290
Спасибок: 21012
Лайков: 3
Такой релиз на 10 дней в объявления :bra_vo:
_________________
Изображение
Не в сети
Профиль  
 Добавлено: 2011-07-28 20:14 (спустя 24 минуты)
Кинокомментатор
Аватара пользователя
Стаж: 8 лет 8 месяцев
Возраст: 32
Сообщений: 5126
Спасибок: 194
Лайков: 35
220 гигов!!! :sh_ok: у меня есть 3 разных издания, но такого еще нет. Щаз приеду домой, сотру всю порнуху и скачаю. Спасибо за сие чудо. :)
 Swen191 нравится это.
Не в сети
Профиль  
 Добавлено: 2011-08-23 22:24 (спустя 26 дней)
Кинокомментатор
Аватара пользователя
Стаж: 8 лет 8 месяцев
Возраст: 32
Сообщений: 5126
Спасибок: 194
Лайков: 35
Начал закачку. Будьте добры, раздайте на полной скорости.
Спасибо.
Не в сети
Профиль  
 Добавлено: 2011-09-28 19:41 (спустя 1 месяц 4 дня)
Аватара пользователя
Стаж: 6 лет
Сообщений: 34
Лайков: 1
Скачал!!!Не обращайте внимания На то что пользователь забанен пишите в личку раздам!!!
Не в сети
Профиль  
 Добавлено: 2011-10-11 01:03 (спустя 12 дней)
Top-releaser
Аватара пользователя
Стаж: 7 лет 8 месяцев
Возраст: 104
Сообщений: 23302
Спасибок: 61372
Лайков: 17

Santa_Klaus:

Не обращайте внимания На то что пользователь забанен пишите в личку раздам!!!
Встал на раздачу. 24 часа в сутки. :)
Не в сети
Профиль  
 Добавлено: 2011-10-12 09:23 (спустя 1 день 8 часов)
Аватара пользователя
Стаж: 7 лет
Сообщений: 42
:sh_ok: Эт наверное год нужно качать :-D
Не в сети
Профиль  
 Добавлено: 2011-12-25 19:42 (спустя 2 месяца 13 дней)
Аватара пользователя
Стаж: 8 лет 3 месяца
Возраст: 43
Сообщений: 3290
Спасибок: 21012
Лайков: 3
поднимаю опять временно в объявления :)
_________________
Изображение
Не в сети
Профиль  
 Добавлено: 2012-01-24 13:22 (спустя 29 дней)
Аватара пользователя
Стаж: 7 лет 8 месяцев
Сообщений: 16
Фильмы двухдисковые или на вторых дисках бонусы?
Не в сети
Профиль  
 Добавлено: 2012-03-31 14:44 (спустя 2 месяца 7 дней)
Аватара пользователя
Стаж: 9 лет
Сообщений: 15
Спасибок: 141
Очень хотим скачать, встаньте плиз на раздачу, больше месяца не было полного источника.. заранее спасибо!
Не в сети
Профиль  
 Добавлено: 2012-05-17 20:21 (спустя 1 месяц 17 дней)
Аватара пользователя
Стаж: 6 лет
Сообщений: 34
Лайков: 1
Фильм двухдисковый ни каких бонусов!!Пишите в ЛС раздам как надо!!
Не в сети
Профиль  
 Добавлено: 2012-06-23 21:49 (спустя 1 месяц 6 дней)
Аватара пользователя
Стаж: 4 года 11 месяцев
Сообщений: 67
мда ну и где столько памяти освободить-трагедия!!!! надо еще разок глянуть-фильм на все времена
Не в сети
Профиль  
 Добавлено: 2012-07-04 21:32 (спустя 10 дней)
Стаж: 6 лет 4 месяца
Сообщений: 4
после гоблина скучновато, но зато в фхд. прям как про красивых и умных. :hi_hi_hi:
Не в сети
Профиль  
 Добавлено: 2012-08-15 17:05 (спустя 1 месяц 10 дней)
Аватара пользователя
Стаж: 5 лет 9 месяцев
Возраст: 28
Сообщений: 5
раздайте пожалуйста!
Не в сети
Профиль  
 Добавлено: 2012-11-06 15:02 (спустя 2 месяца 21 день)
Аватара пользователя
Стаж: 6 лет 5 месяцев
Сообщений: 138
Спасибок: 1118
Лайков: 1
Спасибо!
_________________
Изображение
Не в сети
Профиль  
 Добавлено: 2012-12-26 00:03 (спустя 1 месяц 19 дней)
Аватара пользователя
Стаж: 7 лет
Сообщений: 113
А с какой программы его смотреть то? вообще не открывается никак! Подскажите
Не в сети
Профиль  
 Добавлено: 2012-12-26 12:00 (спустя 11 часов)
Кинокомментатор
Аватара пользователя
Стаж: 8 лет 8 месяцев
Возраст: 32
Сообщений: 5126
Спасибок: 194
Лайков: 35
RaVeN_91
Media Player Classic
KMplayer
PowerDVD Ultra 12
_________________
Изображение
Изображение Кино-кафе или что посмотреть сегодня вечером. Советы кинокомментатора О_о ИзображениеИзображение
Не в сети
Профиль  
 Добавлено: 2013-03-28 18:13 (спустя 3 месяца 2 дня)
Стаж: 8 лет 6 месяцев
Сообщений: 22
Спасибок: 17
Обещает качать 3 года 18 недель. Я не выдержу. Встаньте на раздачу, пожалуйста!
Не в сети
Профиль  
 Добавлено: 2013-04-09 21:05 (спустя 12 дней)
Стаж: 3 года 8 месяцев
Сообщений: 1
Блин, народ, на раздачу можно попросить. Скорость 8МБ/s всего. Я так до утра не скачаю :)

Добавлено спустя 15 минут:
Скорость упала до 2,5. Теперь вообще не скачаю... :(
Не в сети
Профиль  
 Добавлено: 2013-12-16 17:52 (спустя 8 месяцев)
Стаж: 2 года 11 месяцев
Сообщений: 21
спасибо!!!
_________________
Быстрый , стабильный заработок , без начальных вложений , до 30 $ в день , попробуйте и убедитесь сами
http://vk.com/club63014972, здесь все подробно описано , начните зарабатывать уже сегодня.
если что-то непонятно , постучите в скайп rinat_flash , все объясню и покажу.
Не в сети
Профиль  
 Добавлено: 2016-01-18 15:13 (спустя 2 года 1 месяц)
Аватара пользователя
Стаж: 8 лет 11 месяцев
Сообщений: 11
С раздачей совсем беда... :ny_tik:
Не в сети
Профиль  
Начать новую темуОтветить на тему  [ Сообщений: 21 ] 
Вы не можете начинать темы
Вы не можете отвечать на сообщения
Вы не можете редактировать свои сообщения
Вы не можете удалять свои сообщения