Правила форума

  • В этом разделе создание новых тем Запрещено.
  • Для создания новых тем пользуйтесь Корневым разделом DVD и HD фильмы.
Начать новую темуОтветить на тему  [ Сообщений: 26 ] 
Торрент файл
Размер: 87.72 GB • Зарегистрирован: 5 лет 5 месяцев • Статус: Проверено
Скачан: 359 раз • Желающих скачать: 0 • Поблагодарили: 133 раза
 Раздают: 5  |  0 KB/s  ]   Качают: 0  |  0 KB/s  ] 
Сообщения
 Добавлено: 2011-06-26 12:25
Аватара пользователя
Стаж: 9 лет
Возраст: 27
Сообщений: 1386
Спасибок: 16115
Лайков: 14
Властелин колец. Трилогия. Режиссёрская версия
The Lord of the Rings. Trilogy. Extended Edition

Изображение

Властелин колец: Братство кольца (Режиссёрская версия) / The Lord of the Rings: The Fellowship of the Ring (Extended Edition)

Изображение

Властелин колец: Братство кольца (Режиссёрская версия)
Год выпуска: 2001
Страна: Изображение США, Изображение Новая Зеландия
Жанр: фэнтези, боевик, приключения
Продолжительность: 03:48:17
Перевод: Дубляж, Многоголосый [Superbit], Многоголосый [Позитив-мультимедиа], Оригинал, Комментарии, Субтитры [UTF-8]
Режиссёр: Питер Джексон
Сценарий: Джон Рональд Руэл Толкиен, Фрэнсис Уолш, Филиппа Бойенс
Продюсер: Питер Джексон, Майкл Линн, Марк Ордески
Оператор: Эндрю Лесни
Композитор: Дэвид Дональдсон, Эния, Элизабет Фрайзер

В ролях: Элайджа Вуд, Шон Эстин, Вигго Мортенсен, Иэн МакКеллен, Доминик Монахэн, Билли Бойд, Шон Бин, Орландо Блум, Джон Рис-Дэвис, Кристофер Ли
Описание: Сказания о Средиземье — это хроника Великой войны за Кольцо, войны, длившейся не одну тысячу лет. Тот, кто владел Кольцом, получал власть над всеми живыми тварями, но был обязан служить злу. Тихая деревня, где живут хоббиты. Волшебник Гэндальф, придя на 111-й день рождения к своему старому другу Бильбо Бэггинсу, начинает вести разговор о кольце, которое Бильбо нашел много лет назад. Это кольцо принадлежало когда-то темному властителю Средиземья Саурону, и оно дает большую власть своему обладателю. Теперь Саурон хочет вернуть себе власть над Средиземьем. Бильбо отдает найденное кольцо своему племяннику Фродо, который пытается научиться справляться с тем страшным могуществом, которое дает ему кольцо…
Раздача: Изображение Изображение

Бюджет: $93 000 000
Сборы в мире: $871 368 364

Изображение 8.41/10 {63,500 votes}
Изображение 8.8/10 {442,681 votes}

Возрастной рейтинг MPAA: Рейтинг PG-13 — Детям до 13 лет просмотр не желателен
Изображение
NFO
D:\Vlastelin.kolec.Trilogija.2001-2003.x264.BDrip.(1080p)-CHD\Vlastelin.kolec.Bratstvo.kol'ca.2001.x264.BDrip.1080p-CHD.mkv
  General
    Unique ID : 183919606036986179623907054594778113394 (0x8A5DA0AE7FE9C139B442AB9061DEA572)
    Complete name : D:\Vlastelin.kolec.Trilogija.2001-2003.x264.BDrip.(1080p)-CHD\Vlastelin.kolec.Bratstvo.kol'ca.2001.x264.BDrip.1080p-CHD.mkv
    Format : Matroska
    File size : 25.1 GiB
    Duration : 3h 48mn
    Overall bit rate : 15.8 Mbps
    Encoded date : UTC 2011-06-20 18:49:19
    Writing application : mkvmerge v4.7.0 ('Just Like You Imagined') сборка от Apr 21 2011 01:13:14
    Writing library : libebml v1.2.0 + libmatroska v1.1.0
  Video #1
    ID : 1
    Format : AVC
    Format/Info : Advanced Video Codec
    Format profile : High@L4.1
    Format settings, CABAC : Yes
    Format settings, ReFrames : 5 frames
    Muxing mode : Header stripping
    Codec ID : V_MPEG4/ISO/AVC
    Duration : 3h 48mn
    Bit rate : 11.1 Mbps
    Width : 1 920 pixels
    Height : 800 pixels
    Display aspect ratio : 2.40:1
    Frame rate : 23.976 fps
    Color space : YUV
    Chroma subsampling : 4:2:0
    Bit depth : 8 bits
    Scan type : Progressive
    Bits/(Pixel*Frame) : 0.301
    Stream size : 17.2 GiB (68%)
    Title : TLOTR-I
    Writing library : x264 core 114 r1924 08d04a4
    Encoding settings : cabac=1 / ref=5 / deblock=1:-3:-3 / analyse=0x3:0x113 / me=tesa / subme=10 / psy=1 / psy_rd=1.05:0.10 / mixed_ref=1 / me_range=48 / chroma_me=1 / trellis=2 / 8x8dct=1 / cqm=2 / deadzone=21,11 / fast_pskip=0 / chroma_qp_offset=-2 / threads=12 / sliced_threads=0 / nr=0 / decimate=1 / interlaced=0 / constrained_intra=0 / bframes=6 / b_pyramid=2 / b_adapt=2 / b_bias=0 / direct=3 / weightb=1 / open_gop=0 / weightp=2 / keyint=250 / keyint_min=23 / scenecut=40 / intra_refresh=0 / rc_lookahead=60 / rc=2pass / mbtree=1 / bitrate=11090 / ratetol=1.0 / qcomp=0.70 / qpmin=1 / qpmax=63 / qpstep=4 / cplxblur=20.0 / qblur=0.5 / vbv_maxrate=40000 / vbv_bufsize=40000 / nal_hrd=none / ip_ratio=1.40 / aq=2:0.90
    Language : English
  Audio #2
    ID : 2
    Format : AC-3
    Format/Info : Audio Coding 3
    Mode extension : CM (complete main)
    Muxing mode : Header stripping
    Codec ID : A_AC3
    Duration : 3h 48mn
    Bit rate mode : Constant
    Bit rate : 448 Kbps
    Channel(s) : 6 channels
    Channel positions : Front: L C R, Side: L R, LFE
    Sampling rate : 48.0 KHz
    Bit depth : 16 bits
    Compression mode : Lossy
    Stream size : 732 MiB (3%)
    Title : Dub
    Language : Russian
  Audio #3
    ID : 3
    Format : DTS
    Format/Info : Digital Theater Systems
    Format profile : ES
    Muxing mode : Header stripping
    Codec ID : A_DTS
    Duration : 3h 48mn
    Bit rate mode : Constant
    Bit rate : 1 510 Kbps
    Channel(s) : 7 channels / 6 channels
    Channel positions : Front: L C R, Side: L R, Back: C, LFE / Front: L C R, Side: L R, LFE
    Sampling rate : 48.0 KHz
    Bit depth : 24 bits
    Compression mode : Lossy
    Stream size : 2.41 GiB (10%)
    Title : MVO - Superbit
    Language : Russian
  Audio #4
    ID : 4
    Format : AC-3
    Format/Info : Audio Coding 3
    Mode extension : CM (complete main)
    Muxing mode : Header stripping
    Codec ID : A_AC3
    Duration : 3h 48mn
    Bit rate mode : Constant
    Bit rate : 448 Kbps
    Channel(s) : 6 channels
    Channel positions : Front: L C R, Side: L R, LFE
    Sampling rate : 48.0 KHz
    Bit depth : 16 bits
    Compression mode : Lossy
    Stream size : 732 MiB (3%)
    Title : MVO - Позитив
    Language : Russian
  Audio #5
    ID : 5
    Format : DTS
    Format/Info : Digital Theater Systems
    Format profile : ES
    Muxing mode : Header stripping
    Codec ID : A_DTS
    Duration : 3h 48mn
    Bit rate mode : Constant
    Bit rate : 1 510 Kbps
    Channel(s) : 7 channels / 6 channels
    Channel positions : Front: L C R, Side: L R, Back: C, LFE / Front: L C R, Side: L R, LFE
    Sampling rate : 48.0 KHz
    Bit depth : 24 bits
    Compression mode : Lossy
    Stream size : 2.41 GiB (10%)
    Language : English
  Audio #6
    ID : 6
    Format : AC-3
    Format/Info : Audio Coding 3
    Format profile : Dolby Digital
    Mode extension : CM (complete main)
    Muxing mode : Header stripping
    Codec ID : A_AC3
    Duration : 3h 48mn
    Bit rate mode : Constant
    Bit rate : 192 Kbps
    Channel(s) : 2 channels
    Channel positions : Front: L R
    Sampling rate : 48.0 KHz
    Bit depth : 16 bits
    Compression mode : Lossy
    Stream size : 314 MiB (1%)
    Title : Commentary1
    Language : English
  Audio #7
    ID : 7
    Format : AC-3
    Format/Info : Audio Coding 3
    Format profile : Dolby Digital
    Mode extension : CM (complete main)
    Muxing mode : Header stripping
    Codec ID : A_AC3
    Duration : 3h 48mn
    Bit rate mode : Constant
    Bit rate : 192 Kbps
    Channel(s) : 2 channels
    Channel positions : Front: L R
    Sampling rate : 48.0 KHz
    Bit depth : 16 bits
    Compression mode : Lossy
    Stream size : 314 MiB (1%)
    Title : Commentary2
    Language : English
  Audio #8
    ID : 8
    Format : AC-3
    Format/Info : Audio Coding 3
    Format profile : Dolby Digital
    Mode extension : CM (complete main)
    Muxing mode : Header stripping
    Codec ID : A_AC3
    Duration : 3h 48mn
    Bit rate mode : Constant
    Bit rate : 192 Kbps
    Channel(s) : 2 channels
    Channel positions : Front: L R
    Sampling rate : 48.0 KHz
    Bit depth : 16 bits
    Compression mode : Lossy
    Stream size : 314 MiB (1%)
    Title : Commentary3
    Language : English
  Audio #9
    ID : 9
    Format : AC-3
    Format/Info : Audio Coding 3
    Format profile : Dolby Digital
    Mode extension : CM (complete main)
    Muxing mode : Header stripping
    Codec ID : A_AC3
    Duration : 3h 48mn
    Bit rate mode : Constant
    Bit rate : 192 Kbps
    Channel(s) : 2 channels
    Channel positions : Front: L R
    Sampling rate : 48.0 KHz
    Bit depth : 16 bits
    Compression mode : Lossy
    Stream size : 314 MiB (1%)
    Title : Commentary4
    Language : English
  Text #10
    ID : 10
    Format : UTF-8
    Codec ID : S_TEXT/UTF8
    Codec ID/Info : UTF-8 Plain Text
    Language : Russian
  Text #11
    ID : 11
    Format : UTF-8
    Codec ID : S_TEXT/UTF8
    Codec ID/Info : UTF-8 Plain Text
    Language : English
  Menu
    00:00:00.000 : :Chapter 01
    00:07:36.789 : :Chapter 02
    00:10:35.551 : :Chapter 03
    00:15:39.855 : :Chapter 04
    00:19:58.488 : :Chapter 05
    00:25:32.614 : :Chapter 06
    00:29:57.378 : :Chapter 07
    00:32:10.678 : :Chapter 08
    00:34:51.798 : :Chapter 09
    00:36:18.176 : :Chapter 10
    00:45:04.159 : :Chapter 11
    00:46:44.301 : :Chapter 12
    00:51:21.411 : :Chapter 13
    00:55:12.434 : :Chapter 14
    00:57:30.071 : :Chapter 15
    01:03:31.516 : :Chapter 16
    01:07:16.115 : :Chapter 17
    01:08:53.587 : :Chapter 18
    01:10:35.940 : :Chapter 19
    01:15:15.385 : :Chapter 20
    01:17:46.620 : :Chapter 21
    01:24:11.546 : :Chapter 22
    01:26:12.500 : :Chapter 23
    01:29:41.584 : :Chapter 24
    01:33:14.672 : :Chapter 25
    01:35:54.081 : :Chapter 26
    01:37:32.972 : :Chapter 27
    01:45:43.128 : :Chapter 28
    01:45:43.164 : :Chapter 01
    01:46:58.990 : :Chapter 02
    01:48:42.385 : :Chapter 03
    01:49:59.796 : :Chapter 04
    01:53:05.606 : :Chapter 05
    01:57:51.892 : :Chapter 06
    02:04:17.277 : :Chapter 07
    02:10:47.625 : :Chapter 08
    02:20:12.356 : :Chapter 09
    02:29:53.812 : :Chapter 10
    02:33:06.463 : :Chapter 11
    02:40:23.483 : :Chapter 12
    02:46:03.489 : :Chapter 13
    02:47:44.840 : :Chapter 14
    02:53:07.371 : :Chapter 15
    02:57:59.621 : :Chapter 16
    03:04:27.384 : :Chapter 17
    03:11:43.319 : :Chapter 18
    03:14:25.648 : :Chapter 19
    03:20:43.817 : :Chapter 20
    03:28:24.319 : :Chapter 21
    03:48:17.261 : :Chapter 22
Свернуть

Качество: BDRip 1080p
Формат: MKV
Видео: MPEG-4 AVC, 1920x800, 23.976 fps, ~ 12 Мбит/с
Аудио: Русский (АС3, 6 ch, 448 Кбит/с - дубляж) / Русский (DTS, 7 ch/6 ch, 1510 Кбит/с - многоголосый, Superbit) / Русский (АС3, 6 ch, 448 Кбит/с - (многоголосый, Позитив-мультимедиа) / Английский (DTS, 7 ch/6 ch, 1510 Кбит/с) / Английский (АС3, 2 ch, 192 Кбит/с - комментарии x 4 [4 шт.])
Субтитры: русские, английские [UTF-8]
Скриншоты
Изображение

Изображение
Свернуть
Свернуть


Властелин колец: Две Башни (Режиссёрская версия) / The Lord of the Rings: The Two Towers (Extended Edition)

Изображение

Властелин колец: Две крепости (Режиссёрская версия)
Год выпуска: 2002
Страна: Изображение Германия, Изображение США, Изображение Новая Зеландия
Жанр: фэнтези, боевик, приключения
Продолжительность: 03:57:29
Перевод: Дубляж, Многоголосый [Superbit], Многоголосый [Позитив-мультимедиа], Оригинал, Комментарии, Субтитры [UTF-8]
Режиссёр: Питер Джексон
Сценарий: Джон Рональд Руэл Толкиен, Фрэнсис Уолш, Филиппа Бойенс
Продюсер: Питер Джексон, Майкл Линн, Марк Ордески
Оператор: Эндрю Лесни
Композитор: Элизабет Фрайзер, Говард Шор, Рихард Вагнер

В ролях: Элайджа Вуд, Вигго Мортенсен, Шон Эстин, Орландо Блум, Хьюго Уивинг, Лив Тайлер, Карл Урбан, Иэн МакКеллен, Брюс Олпресс, Миранда Отто
Описание: Братство распалось, но Кольцо Всевластья должно быть уничтожено. Фродо и Сэм вынуждены доверить свои жизни Голлуму, который взялся провести их к вратам Мордора. Громадная Армия Сарумана приближается: члены братства и их союзники готовы принять бой. Битва за Средиземье продолжается.
Раздача: Изображение Изображение

Бюджет: $94 000 000
Сборы в мире: $926 287 400

Изображение 8.4/10 {59,886 votes}
Изображение 8.7/10 {375,516 votes}

Возрастной рейтинг MPAA: Рейтинг PG-13 — Детям до 13 лет просмотр не желателен
Изображение
NFO
D:\Vlastelin.kolec.Trilogija.2001-2003.x264.BDrip.(1080p)-CHD\Vlastelin.kolec.Dve.kreposti.2002.x264.BDrip.1080p-CHD.mkv
  General
    Unique ID : 239644500861534942137827289291190191128 (0xB449DA1E18090AB3ACDC4A9B0B244418)
    Complete name : D:\Vlastelin.kolec.Trilogija.2001-2003.x264.BDrip.(1080p)-CHD\Vlastelin.kolec.Dve.kreposti.2002.x264.BDrip.1080p-CHD.mkv
    Format : Matroska
    File size : 28.8 GiB
    Duration : 3h 55mn
    Overall bit rate : 17.5 Mbps
    Encoded date : UTC 2011-06-20 19:02:04
    Writing application : mkvmerge v4.7.0 ('Just Like You Imagined') сборка от Apr 21 2011 01:13:14
    Writing library : libebml v1.2.0 + libmatroska v1.1.0
  Video #1
    ID : 1
    Format : AVC
    Format/Info : Advanced Video Codec
    Format profile : High@L4.1
    Format settings, CABAC : Yes
    Format settings, ReFrames : 5 frames
    Muxing mode : Header stripping
    Codec ID : V_MPEG4/ISO/AVC
    Duration : 3h 55mn
    Bit rate : 12.9 Mbps
    Width : 1 904 pixels
    Height : 798 pixels
    Display aspect ratio : 2.40:1
    Frame rate : 23.976 fps
    Color space : YUV
    Chroma subsampling : 4:2:0
    Bit depth : 8 bits
    Scan type : Progressive
    Bits/(Pixel*Frame) : 0.353
    Stream size : 20.5 GiB (71%)
    Writing library : x264 core 114 r1924 08d04a4
    Encoding settings : cabac=1 / ref=5 / deblock=1:-3:-3 / analyse=0x3:0x113 / me=tesa / subme=10 / psy=1 / psy_rd=1.05:0.10 / mixed_ref=1 / me_range=48 / chroma_me=1 / trellis=2 / 8x8dct=1 / cqm=2 / deadzone=21,11 / fast_pskip=0 / chroma_qp_offset=-2 / threads=12 / sliced_threads=0 / nr=0 / decimate=1 / interlaced=0 / constrained_intra=0 / bframes=6 / b_pyramid=2 / b_adapt=2 / b_bias=0 / direct=3 / weightb=1 / open_gop=0 / weightp=2 / keyint=250 / keyint_min=23 / scenecut=40 / intra_refresh=0 / rc_lookahead=60 / rc=2pass / mbtree=1 / bitrate=12850 / ratetol=1.0 / qcomp=0.70 / qpmin=1 / qpmax=63 / qpstep=4 / cplxblur=20.0 / qblur=0.5 / vbv_maxrate=40000 / vbv_bufsize=40000 / nal_hrd=none / ip_ratio=1.40 / aq=2:0.90
    Language : English
  Audio #2
    ID : 2
    Format : AC-3
    Format/Info : Audio Coding 3
    Mode extension : CM (complete main)
    Muxing mode : Header stripping
    Codec ID : A_AC3
    Duration : 3h 55mn
    Bit rate mode : Constant
    Bit rate : 448 Kbps
    Channel(s) : 6 channels
    Channel positions : Front: L C R, Side: L R, LFE
    Sampling rate : 48.0 KHz
    Bit depth : 16 bits
    Compression mode : Lossy
    Stream size : 755 MiB (3%)
    Title : Dub
    Language : Russian
  Audio #3
    ID : 3
    Format : DTS
    Format/Info : Digital Theater Systems
    Format profile : ES
    Muxing mode : Header stripping
    Codec ID : A_DTS
    Duration : 3h 55mn
    Bit rate mode : Constant
    Bit rate : 1 510 Kbps
    Channel(s) : 7 channels / 6 channels
    Channel positions : Front: L C R, Side: L R, Back: C, LFE / Front: L C R, Side: L R, LFE
    Sampling rate : 48.0 KHz
    Bit depth : 24 bits
    Compression mode : Lossy
    Stream size : 2.48 GiB (9%)
    Title : MVO - Superbit
    Language : Russian
  Audio #4
    ID : 4
    Format : AC-3
    Format/Info : Audio Coding 3
    Mode extension : CM (complete main)
    Muxing mode : Header stripping
    Codec ID : A_AC3
    Duration : 3h 55mn
    Bit rate mode : Constant
    Bit rate : 448 Kbps
    Channel(s) : 6 channels
    Channel positions : Front: L C R, Side: L R, LFE
    Sampling rate : 48.0 KHz
    Bit depth : 16 bits
    Compression mode : Lossy
    Stream size : 755 MiB (3%)
    Title : MVO - Позитив
    Language : Russian
  Audio #5
    ID : 5
    Format : DTS
    Format/Info : Digital Theater Systems
    Format profile : ES
    Muxing mode : Header stripping
    Codec ID : A_DTS
    Duration : 3h 55mn
    Bit rate mode : Constant
    Bit rate : 1 510 Kbps
    Channel(s) : 7 channels / 6 channels
    Channel positions : Front: L C R, Side: L R, Back: C, LFE / Front: L C R, Side: L R, LFE
    Sampling rate : 48.0 KHz
    Bit depth : 24 bits
    Compression mode : Lossy
    Stream size : 2.48 GiB (9%)
    Language : English
  Audio #6
    ID : 6
    Format : AC-3
    Format/Info : Audio Coding 3
    Format profile : Dolby Digital
    Mode extension : CM (complete main)
    Muxing mode : Header stripping
    Codec ID : A_AC3
    Duration : 3h 55mn
    Bit rate mode : Constant
    Bit rate : 192 Kbps
    Channel(s) : 2 channels
    Channel positions : Front: L R
    Sampling rate : 48.0 KHz
    Bit depth : 16 bits
    Compression mode : Lossy
    Stream size : 323 MiB (1%)
    Title : Commentary1
    Language : English
  Audio #7
    ID : 7
    Format : AC-3
    Format/Info : Audio Coding 3
    Format profile : Dolby Digital
    Mode extension : CM (complete main)
    Muxing mode : Header stripping
    Codec ID : A_AC3
    Duration : 3h 55mn
    Bit rate mode : Constant
    Bit rate : 192 Kbps
    Channel(s) : 2 channels
    Channel positions : Front: L R
    Sampling rate : 48.0 KHz
    Bit depth : 16 bits
    Compression mode : Lossy
    Stream size : 323 MiB (1%)
    Title : Commentary2
    Language : English
  Audio #8
    ID : 8
    Format : AC-3
    Format/Info : Audio Coding 3
    Format profile : Dolby Digital
    Mode extension : CM (complete main)
    Muxing mode : Header stripping
    Codec ID : A_AC3
    Duration : 3h 55mn
    Bit rate mode : Constant
    Bit rate : 192 Kbps
    Channel(s) : 2 channels
    Channel positions : Front: L R
    Sampling rate : 48.0 KHz
    Bit depth : 16 bits
    Compression mode : Lossy
    Stream size : 323 MiB (1%)
    Title : Commentary3
    Language : English
  Audio #9
    ID : 9
    Format : AC-3
    Format/Info : Audio Coding 3
    Format profile : Dolby Digital
    Mode extension : CM (complete main)
    Muxing mode : Header stripping
    Codec ID : A_AC3
    Duration : 3h 55mn
    Bit rate mode : Constant
    Bit rate : 192 Kbps
    Channel(s) : 2 channels
    Channel positions : Front: L R
    Sampling rate : 48.0 KHz
    Bit depth : 16 bits
    Compression mode : Lossy
    Stream size : 323 MiB (1%)
    Title : Commentary4
    Language : English
  Text #10
    ID : 10
    Format : UTF-8
    Codec ID : S_TEXT/UTF8
    Codec ID/Info : UTF-8 Plain Text
    Language : Russian
  Text #11
    ID : 11
    Format : UTF-8
    Codec ID : S_TEXT/UTF8
    Codec ID/Info : UTF-8 Plain Text
    Language : English
  Menu
    00:00:00.000 : :Chapter 01
    00:04:08.748 : :Chapter 02
    00:06:10.828 : :Chapter 03
    00:14:44.967 : :Chapter 04
    00:17:06.608 : :Chapter 05
    00:19:17.948 : :Chapter 06
    00:23:07.094 : :Chapter 07
    00:23:58.311 : :Chapter 08
    00:27:09.044 : :Chapter 09
    00:28:03.181 : :Chapter 10
    00:31:38.229 : :Chapter 11
    00:35:45.518 : :Chapter 12
    00:38:17.878 : :Chapter 13
    00:41:47.796 : :Chapter 14
    00:50:49.755 : :Chapter 15
    00:58:19.412 : :Chapter 16
    01:00:40.178 : :Chapter 17
    01:02:48.306 : :Chapter 18
    01:08:05.998 : :Chapter 19
    01:12:41.732 : :Chapter 20
    01:24:17.343 : :Chapter 21
    01:25:41.636 : :Chapter 22
    01:27:34.332 : :Chapter 23
    01:30:45.523 : :Chapter 24
    01:32:30.586 : :Chapter 25
    01:34:31.040 : :Chapter 26
    01:35:57.042 : :Chapter 27
    01:37:02.316 : :Chapter 28
    01:38:43.959 : :Chapter 29
    01:41:14.818 : :Chapter 30
    01:46:38.892 : :Chapter 31
    01:46:39.584 : :Chapter 01
    01:47:22.376 : :Chapter 02
    01:49:52.234 : :Chapter 03
    01:54:58.791 : :Chapter 04
    02:01:36.980 : :Chapter 05
    02:04:17.098 : :Chapter 06
    02:06:53.546 : :Chapter 07
    02:08:31.102 : :Chapter 08
    02:12:13.866 : :Chapter 09
    02:14:39.845 : :Chapter 10
    02:18:29.450 : :Chapter 11
    02:23:09.021 : :Chapter 12
    02:30:30.712 : :Chapter 13
    02:36:03.962 : :Chapter 14
    02:37:23.833 : :Chapter 15
    02:40:32.104 : :Chapter 16
    02:42:16.834 : :Chapter 17
    02:43:07.510 : :Chapter 18
    02:46:41.599 : :Chapter 19
    02:53:03.981 : :Chapter 20
    02:54:41.036 : :Chapter 21
    02:58:06.157 : :Chapter 22
    02:59:51.304 : :Chapter 23
    03:05:53.791 : :Chapter 24
    03:07:18.876 : :Chapter 25
    03:07:53.619 : :Chapter 26
    03:10:23.144 : :Chapter 27
    03:12:55.129 : :Chapter 28
    03:17:33.615 : :Chapter 29
    03:19:59.970 : :Chapter 30
    03:24:45.255 : :Chapter 31
    03:25:37.807 : :Chapter 32
    03:26:18.348 : :Chapter 33
    03:28:22.138 : :Chapter 34
    03:30:51.996 : :Chapter 35
    03:32:31.679 : :Chapter 36
    03:34:55.823 : :Chapter 37
    03:43:52.109 : :Chapter 38
    03:55:30.223 : :Chapter 39
Свернуть

Качество: BDRip 1080p
Формат: MKV
Видео: MPEG-4 AVC, 1904х798, 23.976 fps, ~ 12 Мбит/с
Аудио: Русский (АС3, 6 ch, 448 Кбит/с - дубляж) / Русский (DTS, 7 ch/6 ch, 1510 Кбит/с - многоголосый, Superbit) / Русский (АС3, 6 ch, 448 Кбит/с - (многоголосый, Позитив-мультимедиа) / Английский (DTS, 7 ch/6 ch, 1510 Кбит/с) / Английский (АС3, 2 ch, 192 Кбит/с - комментарии x 4 [4 шт.])
Субтитры: русские, английские [UTF-8]
Скриншоты
Изображение

Изображение
Свернуть
Свернуть


Властелин колец: Возвращение Короля (Режиссёрская версия) / The Lord of the Rings: The Return Of The King (Extended Edition)

Изображение

Властелин колец: Возвращение Короля(Режиссёрская версия)
Год выпуска: 2003
Страна: Изображение Германия, Изображение США, Изображение Новая Зеландия
Жанр: фэнтези, боевик, приключения
Продолжительность: 04:23:15
Перевод: Дубляж, Многоголосый [Superbit], Многоголосый [Позитив-мультимедиа], Оригинал, Комментарии, Субтитры [UTF-8]
Режиссёр: Питер Джексон
Сценарий: Джон Рональд Руэл Толкиен, Фрэнсис Уолш, Филиппа Бойенс
Продюсер: Питер Джексон, Майкл Линн, Марк Ордески
Оператор: Эндрю Лесни
Композитор: Говард Шор
В ролях: Шон Эстин, Элайджа Вуд, Орландо Блум, Вигго Мортенсен, Энди Серкис, Доминик Монахэн, Иэн МакКеллен, Миранда Отто, Лив Тайлер, Карл Урбан
Описание: Армия Сарумана повержена. Его крепость в осаде. Скоро должна решиться судьба Средиземья. Внимание Саурона приковано к Гондору, последнему оплоту людей. Настало время Арагорну стать во главе Гондора, наследником престола которого он всегда был. Ибо время не ждет. Грядет сражение с армией Саурона, исход которого решит судьбу всего человечества. Тем временем, Фродо и Сэм продолжают свой поход в глубь Мордора, следуя за Смеаголом. Их будущее неясно. Может быть, предательская натура Смеагола погубит Фродо? Судьба Средиземья висит на волоске.
Раздача: Изображение Изображение

Бюджет: $94 000 000
Сборы в мире: $1 118 888 979

Изображение 8.467/10 {65,060 votes}
Изображение: 8.8/10 {419,961}

Возрастной рейтинг MPAA: Рейтинг PG-13 — Детям до 13 лет просмотр не желателен
Изображение
NFO
D:\Vlastelin.kolec.Trilogija.2001-2003.x264.BDrip.(1080p)-CHD\Vlastelin.kolec.Vozvrawenie.Korolja.2003.x264.BDrip.1080p-CHD.mkv
  General
    Unique ID : 187175784708995160709158385783056030057 (0x8CD0BEAF60383F79AB858035EF7AD969)
    Complete name : D:\Vlastelin.kolec.Trilogija.2001-2003.x264.BDrip.(1080p)-CHD\Vlastelin.kolec.Vozvrawenie.Korolja.2003.x264.BDrip.1080p-CHD.mkv
    Format : Matroska
    File size : 33.8 GiB
    Duration : 4h 23mn
    Overall bit rate : 18.4 Mbps
    Encoded date : UTC 2011-06-20 21:56:28
    Writing application : mkvmerge v4.7.0 ('Just Like You Imagined') сборка от Apr 21 2011 01:13:14
    Writing library : libebml v1.2.0 + libmatroska v1.1.0
  Video #1
    ID : 1
    Format : AVC
    Format/Info : Advanced Video Codec
    Format profile : High@L4.1
    Format settings, CABAC : Yes
    Format settings, ReFrames : 5 frames
    Muxing mode : Header stripping
    Codec ID : V_MPEG4/ISO/AVC
    Duration : 4h 23mn
    Bit rate : 13.8 Mbps
    Width : 1 920 pixels
    Height : 796 pixels
    Display aspect ratio : 2.40:1
    Frame rate : 23.976 fps
    Color space : YUV
    Chroma subsampling : 4:2:0
    Bit depth : 8 bits
    Scan type : Progressive
    Bits/(Pixel*Frame) : 0.377
    Stream size : 25.0 GiB (74%)
    Writing library : x264 core 114 r1924 08d04a4
    Encoding settings : cabac=1 / ref=5 / deblock=1:-3:-3 / analyse=0x3:0x113 / me=tesa / subme=10 / psy=1 / psy_rd=1.05:0.10 / mixed_ref=1 / me_range=48 / chroma_me=1 / trellis=2 / 8x8dct=1 / cqm=2 / deadzone=21,11 / fast_pskip=0 / chroma_qp_offset=-2 / threads=12 / sliced_threads=0 / nr=0 / decimate=1 / interlaced=0 / constrained_intra=0 / bframes=6 / b_pyramid=2 / b_adapt=2 / b_bias=0 / direct=3 / weightb=1 / open_gop=0 / weightp=2 / keyint=250 / keyint_min=23 / scenecut=40 / intra_refresh=0 / rc_lookahead=60 / rc=2pass / mbtree=1 / bitrate=13800 / ratetol=1.0 / qcomp=0.70 / qpmin=1 / qpmax=63 / qpstep=4 / cplxblur=20.0 / qblur=0.5 / vbv_maxrate=40000 / vbv_bufsize=40000 / nal_hrd=none / ip_ratio=1.40 / aq=2:0.90
    Language : English
  Audio #2
    ID : 2
    Format : AC-3
    Format/Info : Audio Coding 3
    Mode extension : CM (complete main)
    Muxing mode : Header stripping
    Codec ID : A_AC3
    Duration : 4h 23mn
    Bit rate mode : Constant
    Bit rate : 448 Kbps
    Channel(s) : 6 channels
    Channel positions : Front: L C R, Side: L R, LFE
    Sampling rate : 48.0 KHz
    Bit depth : 16 bits
    Compression mode : Lossy
    Stream size : 844 MiB (2%)
    Title : Dub
    Language : Russian
  Audio #3
    ID : 3
    Format : DTS
    Format/Info : Digital Theater Systems
    Format profile : ES
    Muxing mode : Header stripping
    Codec ID : A_DTS
    Duration : 4h 23mn
    Bit rate mode : Constant
    Bit rate : 1 510 Kbps
    Channel(s) : 7 channels / 6 channels
    Channel positions : Front: L C R, Side: L R, Back: C, LFE / Front: L C R, Side: L R, LFE
    Sampling rate : 48.0 KHz
    Bit depth : 24 bits
    Compression mode : Lossy
    Delay relative to video : 22ms
    Stream size : 2.78 GiB (8%)
    Title : MVO - Superbit
    Language : Russian
  Audio #4
    ID : 4
    Format : AC-3
    Format/Info : Audio Coding 3
    Mode extension : CM (complete main)
    Muxing mode : Header stripping
    Codec ID : A_AC3
    Duration : 4h 23mn
    Bit rate mode : Constant
    Bit rate : 448 Kbps
    Channel(s) : 6 channels
    Channel positions : Front: L C R, Side: L R, LFE
    Sampling rate : 48.0 KHz
    Bit depth : 16 bits
    Compression mode : Lossy
    Stream size : 844 MiB (2%)
    Title : MVO - Позитив
    Language : Russian
  Audio #5
    ID : 5
    Format : DTS
    Format/Info : Digital Theater Systems
    Format profile : ES
    Muxing mode : Header stripping
    Codec ID : A_DTS
    Duration : 4h 23mn
    Bit rate mode : Constant
    Bit rate : 1 510 Kbps
    Channel(s) : 7 channels / 6 channels
    Channel positions : Front: L C R, Side: L R, Back: C, LFE / Front: L C R, Side: L R, LFE
    Sampling rate : 48.0 KHz
    Bit depth : 24 bits
    Compression mode : Lossy
    Delay relative to video : 22ms
    Stream size : 2.78 GiB (8%)
    Language : English
  Audio #6
    ID : 6
    Format : AC-3
    Format/Info : Audio Coding 3
    Mode extension : CM (complete main)
    Muxing mode : Header stripping
    Codec ID : A_AC3
    Duration : 4h 23mn
    Bit rate mode : Constant
    Bit rate : 128 Kbps
    Channel(s) : 2 channels
    Channel positions : Front: L R
    Sampling rate : 48.0 KHz
    Bit depth : 16 bits
    Compression mode : Lossy
    Stream size : 241 MiB (1%)
    Title : Commenyary1
    Language : English
  Audio #7
    ID : 7
    Format : AC-3
    Format/Info : Audio Coding 3
    Mode extension : CM (complete main)
    Muxing mode : Header stripping
    Codec ID : A_AC3
    Duration : 4h 23mn
    Bit rate mode : Constant
    Bit rate : 128 Kbps
    Channel(s) : 2 channels
    Channel positions : Front: L R
    Sampling rate : 48.0 KHz
    Bit depth : 16 bits
    Compression mode : Lossy
    Stream size : 241 MiB (1%)
    Title : Commenyary2
    Language : English
  Audio #8
    ID : 8
    Format : AC-3
    Format/Info : Audio Coding 3
    Mode extension : CM (complete main)
    Muxing mode : Header stripping
    Codec ID : A_AC3
    Duration : 4h 23mn
    Bit rate mode : Constant
    Bit rate : 128 Kbps
    Channel(s) : 2 channels
    Channel positions : Front: L R
    Sampling rate : 48.0 KHz
    Bit depth : 16 bits
    Compression mode : Lossy
    Stream size : 241 MiB (1%)
    Title : Commenyary3
    Language : English
  Audio #9
    ID : 9
    Format : AC-3
    Format/Info : Audio Coding 3
    Mode extension : CM (complete main)
    Muxing mode : Header stripping
    Codec ID : A_AC3
    Duration : 4h 23mn
    Bit rate mode : Constant
    Bit rate : 128 Kbps
    Channel(s) : 2 channels
    Channel positions : Front: L R
    Sampling rate : 48.0 KHz
    Bit depth : 16 bits
    Compression mode : Lossy
    Stream size : 241 MiB (1%)
    Title : Commenyary4
    Language : English
  Text #10
    ID : 10
    Format : UTF-8
    Codec ID : S_TEXT/UTF8
    Codec ID/Info : UTF-8 Plain Text
    Language : Russian
  Text #11
    ID : 11
    Format : UTF-8
    Codec ID : S_TEXT/UTF8
    Codec ID/Info : UTF-8 Plain Text
    Language : English
Свернуть

Качество: BDRip 1080p
Формат: MKV
Видео: MPEG-4 AVC, 1920х796, 23.976 fps, ~ 12 Мбит/с
Аудио: Русский (АС3, 6 ch, 448 Кбит/с - дубляж) / Русский (DTS, 7 ch/6 ch, 1510 Кбит/с - многоголосый, Superbit) / Русский (АС3, 6 ch, 448 Кбит/с - (многоголосый, Позитив-мультимедиа) / Английский (DTS, 7 ch/6 ch, 1510 Кбит/с) / Английский (АС3, 2 ch, 192 Кбит/с - комментарии x 4 [4 шт.])
Субтитры: русские, английские [UTF-8]
Скриншоты
Изображение

Изображение
Свернуть
Свернуть

Раздача: Изображение Изображение

Оформление раздачи:
kits
 carbac1993 нравится это.
Не в сети
Профиль  
 Добавлено: 2011-06-26 13:00 (спустя 34 минуты)
Аватара пользователя
Стаж: 8 лет 3 месяца
Возраст: 43
Сообщений: 3290
Спасибок: 21012
Лайков: 3
viewtopic.php?f=1750&t=131159
стоит ли плодить почти одинаковые раздачи ? :(
хотя... русский дтс + многоголосый, :co_ol:
_________________
Изображение
Не в сети
Профиль  
 Добавлено: 2011-06-26 13:14 (спустя 13 минут)
Аватара пользователя
Стаж: 9 лет
Сообщений: 51
Спасибок: 873
стоит)
Не в сети
Профиль  
 Добавлено: 2011-06-26 15:01 (спустя 1 час 46 минут)
Аватара пользователя
Стаж: 8 лет 1 месяц
Возраст: 46
Сообщений: 401
Спасибок: 16
Лайков: 2

Иванишко:

http://nnportal.org/portal/viewtopic.php?f=1750&t=131159
стоит ли плодить почти одинаковые раздачи ? :(
хотя... русский дтс + многоголосый, :co_ol:

а разве там режиссерские версии?
Не в сети
Профиль  
 Добавлено: 2011-06-26 22:25 (спустя 7 часов)
Аватара пользователя
Стаж: 9 лет
Возраст: 27
Сообщений: 1386
Спасибок: 16115
Лайков: 14
ночью раздаю на максимуме только эту раздачу.
Не в сети
Профиль  
 Добавлено: 2011-06-27 07:05 (спустя 8 часов)
Аватара пользователя
Стаж: 8 лет 11 месяцев
Сообщений: 869
Спасибок: 113
Иванишко
Здесь BD, там HDTV.
Не в сети
Профиль  
 Добавлено: 2011-06-27 08:25 (спустя 1 час 20 минут)
Стаж: 8 лет
Сообщений: 219
Лайков: 18
Ещё б кто 1080р HDTV сделал а? А то не было у режисерской версии HDTV, у меня до сих пор и режисерка есть в HQ и простая версия в HDTV. Просто BDrip влом качать.
Не в сети
Профиль  
 Добавлено: 2011-06-29 08:35 (спустя 2 дня)
Аватара пользователя
Стаж: 7 лет 2 месяца
Сообщений: 3
Респект и уважуха!
Не в сети
Профиль  
 Добавлено: 2011-06-29 09:58 (спустя 1 час 22 минуты)
Top-releaser
Аватара пользователя
Стаж: 6 лет 11 месяцев
Возраст: 45
Сообщений: 299
Спасибок: 4106
Лайков: 3
Сдается русского дубляжа нет на режиссёрку (она же Extended Edition),
подозреваю тут компоновка: дубляж от театральной версии + вставки многоголоски.
Многоголоску-режиссёрку выпускали Superbit и Позитив-мультимедиа на своих DVD (не BD!).

Автор подскажи точнее, что с русским дубляжом?
А то может я от жизни отстал, полный дубляж режиссёрки пропустил?
Не в сети
Профиль  
 Добавлено: 2011-06-29 14:36 (спустя 4 часа)
Top-releaser
Аватара пользователя
Стаж: 8 лет 7 месяцев
Сообщений: 1286
Спасибок: 3420
Лайков: 7
VVVDDD Ты прав, дубляж + вставки многоголоски.
Не в сети
Профиль  
 Добавлено: 2011-07-09 17:41 (спустя 10 дней)
Аватара пользователя
Стаж: 7 лет
Сообщений: 47
раздайте плз
Не в сети
Профиль  
 Добавлено: 2011-07-27 21:04 (спустя 18 дней)
Стаж: 6 лет 3 месяца
Сообщений: 26
Спасибок: 117
Привет! Кто в курсе - с нормальным качеством звука на дубляже когда нибудь будет???
Не в сети
Профиль  
 Добавлено: 2011-07-29 22:06 (спустя 2 дня 1 час)
Аватара пользователя
Стаж: 9 лет
Возраст: 27
Сообщений: 1386
Спасибок: 16115
Лайков: 14
на режиссерской версии дубляжа никогда не будет скорее всего :du_ma_et:
Не в сети
Профиль  
 Добавлено: 2011-08-04 19:48 (спустя 5 дней)
Аватара пользователя
Стаж: 8 лет 3 месяца
Сообщений: 20
Спасибок: 307
дайте скорости!!!!!
Не в сети
Профиль  
 Добавлено: 2011-11-09 10:17 (спустя 3 месяца 4 дня)
Стаж: 6 лет 6 месяцев
Сообщений: 108
Подскажите, насколько режиссёрка от обычной версии отличается?
Не в сети
Профиль  
 Добавлено: 2011-11-12 13:15 (спустя 3 дня)
Top-releaser
Аватара пользователя
Стаж: 6 лет 7 месяцев
Сообщений: 2078
Спасибок: 3230
Лайков: 9
скорости добавьте. пожалуйста
Не в сети
Профиль  
 Добавлено: 2011-12-28 18:53 (спустя 1 месяц 16 дней)
Аватара пользователя
Стаж: 7 лет 8 месяцев
Сообщений: 16
Большое спасибо автору за релиз.
Не в сети
Профиль  
 Добавлено: 2012-06-16 18:52 (спустя 5 месяцев 18 дней)
Аватара пользователя
Стаж: 8 лет 3 месяца
Возраст: 43
Сообщений: 3290
Спасибок: 21012
Лайков: 3
спасибо :)
_________________
Изображение
Не в сети
Профиль  
 Добавлено: 2012-12-08 13:42 (спустя 5 месяцев 21 день)
Top-releaser
Аватара пользователя
Стаж: 8 лет 9 месяцев
Сообщений: 211
Спасибок: 3857
Лайков: 1
огромное спасибо
_________________
Изображение
Не в сети
Профиль  
 Добавлено: 2013-06-02 17:50 (спустя 5 месяцев 25 дней)
Аватара пользователя
Стаж: 8 лет 1 месяц
Возраст: 26
Сообщений: 132
Лайков: 1
:ry_car: :ry_car: :ry_car: НАРОД ВСТАНЬТЕ НА РАЗДАЧУ ПОЖАЛУСТА!!! :ry_car: :ry_car: :ry_car:
Не в сети
Профиль  
 Добавлено: 2013-07-22 21:32 (спустя 1 месяц 20 дней)
Аватара пользователя
Стаж: 7 лет 8 месяцев
Сообщений: 63
Спасибок: 183
Лайков: 5
спасибо)))
:bra_vo:
Не в сети
Профиль  
 Добавлено: 2014-01-15 18:54 (спустя 5 месяцев 23 дня)
Аватара пользователя
Стаж: 8 лет 7 месяцев
Сообщений: 22
раздайте плиз!!!
Не в сети
Профиль  
 Добавлено: 2014-12-14 19:26 (спустя 10 месяцев)
Стаж: 8 лет 8 месяцев
Сообщений: 173
Лайков: 17
Дайте скорости, пожалуйста. После просмотра последней части Хоббита потянуло ВК пересмотреть :)
Не в сети
Профиль  
 Добавлено: 2014-12-14 22:19 (спустя 2 часа 53 минуты)
Аватара пользователя
Стаж: 8 лет 1 месяц
Возраст: 26
Сообщений: 132
Лайков: 1

valdemarpool:

Дайте скорости, пожалуйста. После просмотра последней части Хоббита потянуло ВК пересмотреть :)
:ry_car: :ry_car: :ry_car: ТАКАЯ ЖЕ ТЕМА :ry_car: :ry_car: :ry_car:
Не в сети
Профиль  
 Добавлено: 2015-04-21 18:58 (спустя 4 месяца 6 дней)
Стаж: 5 лет 10 месяцев
Сообщений: 11
Дайте скорости пжлст
Не в сети
Профиль  
 Добавлено: 2015-11-25 19:34 (спустя 7 месяцев)
Стаж: 1 год 2 месяца
Сообщений: 2
Gloom
Прибавь скорости!!!
Не в сети
Профиль  
Начать новую темуОтветить на тему  [ Сообщений: 26 ] 
Вы не можете начинать темы
Вы не можете отвечать на сообщения
Вы не можете редактировать свои сообщения
Вы не можете удалять свои сообщения