Правила форума

  • В этом разделе создание новых тем Запрещено.
  • Для создания новых тем пользуйтесь Корневым разделом DVD и HD фильмы.
Начать новую темуОтветить на тему  [ 1 сообщение ] 
Торрент файл
Размер: 15.71 GB • Зарегистрирован: 5 лет 8 месяцев • Статус: Проверено
Скачан: 11 раз • Желающих скачать: 0 • Поблагодарили: 4 раза
 Раздают: 0  |  0 KB/s  ]   Качают: 0  |  0 KB/s  ] 
 Полного источника не было 1 год 9 месяцев 
Сообщения
 Добавлено: 2011-04-05 20:02
Модератор релиз-группы
Аватара пользователя
Стаж: 9 лет 1 месяц
Возраст: 97
Сообщений: 11659
Спасибок: 6532
Лайков: 269
Вне поля зрения / Out of Sight

Изображение


Год выпуска: 1998
Страна: США
Жанр: Детектив, Комедия, Приключения
Продолжительность: 02:02:49
Перевод: Профессиональный многоголосый закадровый, Blu-ray EUR
Профессиональный многоголосый закадровый
Профессиональный многоголосый закадровый, НТВ
Авторский одноголосый (Ю.Живов)
Авторский одноголосый (А.Кашкин (Первомайский))
Оригинальная звуковая дорожка
Комментарии, Стивена Содерберга, Скотта Фрэнка
Субтитры: Английские

Режиссёр: Стивен Содерберг / Steven Soderbergh
В ролях: Джордж Клуни, Дженнифер Лопез, Джим Робинсон, Майк Мэлоун, Донна Френзель, Мэнни Суарез, Деннис Фарина, Кит Хадсон, Луис Гузман, Paul Soileau
Описание: Джек Фоули — самый удачливый грабитель в стране, ограбивший более двухсот банков. Однажды, сбежав из тюрьмы, он понимает, что должен украсть кое-что более ценное, чем деньги… сердце Карен Сиско. Она умна, красива, но, к сожалению, Карен еще и работник прокуратуры. Теперь предстоит рискнуть всем, чтобы понять, есть ли между ними нечто большее, нежели Закон…


Изображение
Качество: BDRip, 1080p
Формат: MKV
Видео кодек: H264 (AVC)
Аудио кодек: AC3 (Dolby Digital)
Видео: 1920x1040 at 23.976 fps, MPEG-4 AVC, ~12500 kbps avg
Аудио #1: Russian: 48 kHz, AC3, 2 (L,R) ch , ~448.00 kbps avg [Многоголосый закадровый, Blu-ray EUR]
Аудио #2: Russian: 48 kHz, AC3, 3/2 (L,C,R,l,r) + LFE ch, ~448.00 kbps avg [Многоголосый закадровый]
Аудио #3: Russian: 48 kHz, AC3, 2.0 (L,R) ch, ~192.00 kbps avg [Многоголосый закадровый, НТВ]
Аудио #4: Russian: 48 kHz, DTS, 3/2 (L,C,R,l,r) + LFE ch, ~1536.00 kbps avg [Авторский одноголосый (Ю.Живов)]
Аудио #5: Russian: 48 kHz, DTS, 3/2 (L,C,R,l,r) + LFE ch, ~1536.00 kbps avg [Авторский одноголосый (А.Кашкин (Первомайский))]
Аудио #6: English: 48 kHz, DTS, 3/2 (L,C,R,l,r) + LFE ch, ~1536.00 kbps avg [Оригинальная звуковая дорожка]
Аудио #7: English: 48 kHz, AC3, 2.0 (L,R) ch, ~192.00 kbps avg [Комментарии, Стивена Содерберга, Скотта Фрэнка]
Субтитры: Английские
Скриншоты
Изображение

Изображение

Изображение

Изображение

Изображение
Свернуть

Mi
Format : Matroska
File size : 15.7 GiB
Duration : 2h 2mn
Overall bit rate : 18.3 Mbps
Movie name : Out of Sight (1998) - Release for HDCLUB
Encoded date : UTC 2011-04-01 14:54:33
Writing application : mkvmerge v2.1.0 ('Another Place To Fall') built on Aug 19 2007 13:40:07
Writing library : libebml v0.7.7 + libmatroska v0.8.1

Video
ID : 1
Format : AVC
Format/Info : Advanced Video Codec
Format profile : High@L4.1
Format settings, CABAC : Yes
Format settings, ReFrames : 4 frames
Codec ID : V_MPEG4/ISO/AVC
Duration : 2h 2mn
Bit rate mode : Variable
Bit rate : 12.5 Mbps
Maximum bit rate : 50.0 Mbps
Width : 1 920 pixels
Height : 1 040 pixels
Display aspect ratio : 16:9
Frame rate : 23.976 fps
Color space : YUV
Chroma subsampling : 4:2:0
Bit depth : 8 bits
Scan type : Progressive
Bits/(Pixel*Frame) : 0.261
Stream size : 10.4 GiB (66%)
Title : Out of Sight (1998) - Release for HDCLUB
Writing library : x264 core 114 r1913 5fd3dce
Encoding settings : cabac=1 / ref=4 / deblock=1:-3:-3 / analyse=0x3:0x133 / me=umh / subme=10 / psy=1 / psy_rd=1.15:0.15 / mixed_ref=1 / me_range=24 / chroma_me=1 / trellis=2 / 8x8dct=1 / cqm=0 / deadzone=21,11 / fast_pskip=1 / chroma_qp_offset=-3 / threads=12 / sliced_threads=0 / nr=0 / decimate=1 / interlaced=0 / constrained_intra=0 / bframes=7 / b_pyramid=2 / b_adapt=2 / b_bias=0 / direct=3 / weightb=1 / open_gop=0 / weightp=2 / keyint=24 / keyint_min=1 / scenecut=40 / intra_refresh=0 / rc_lookahead=29 / rc=2pass / mbtree=1 / bitrate=12499 / ratetol=1.0 / qcomp=0.60 / qpmin=10 / qpmax=51 / qpstep=4 / cplxblur=20.0 / qblur=0.5 / vbv_maxrate=50000 / vbv_bufsize=62500 / nal_hrd=vbr / ip_ratio=1.40 / aq=1:0.80
Language : English

Audio #1
ID : 2
Format : AC-3
Format/Info : Audio Coding 3
Format profile : Dolby Digital
Mode extension : CM (complete main)
Codec ID : A_AC3
Duration : 2h 2mn
Bit rate mode : Constant
Bit rate : 448 Kbps
Channel(s) : 2 channels
Channel positions : Front: L R
Sampling rate : 48.0 KHz
Bit depth : 16 bits
Compression mode : Lossy
Stream size : 394 MiB (2%)
Title : AC3 2.0ch 448 kbps - Многоголосый закадровый
Language : Russian

Audio #2
ID : 3
Format : AC-3
Format/Info : Audio Coding 3
Mode extension : CM (complete main)
Codec ID : A_AC3
Duration : 2h 2mn
Bit rate mode : Constant
Bit rate : 448 Kbps
Channel(s) : 6 channels
Channel positions : Front: L C R, Side: L R, LFE
Sampling rate : 48.0 KHz
Bit depth : 16 bits
Compression mode : Lossy
Stream size : 394 MiB (2%)
Title : AC3 5.1ch 448 kbps - Многоголосый закадровый
Language : Russian

Audio #3
ID : 4
Format : AC-3
Format/Info : Audio Coding 3
Mode extension : CM (complete main)
Codec ID : A_AC3
Duration : 2h 2mn
Bit rate mode : Constant
Bit rate : 192 Kbps
Channel(s) : 2 channels
Channel positions : Front: L R
Sampling rate : 48.0 KHz
Bit depth : 16 bits
Compression mode : Lossy
Stream size : 169 MiB (1%)
Title : AC3 2.0ch 192 kbps - Многоголосый закадровый
Language : Russian

Audio #4
ID : 5
Format : DTS
Format/Info : Digital Theater Systems
Codec ID : A_DTS
Duration : 2h 2mn
Bit rate mode : Constant
Bit rate : 1 510 Kbps
Channel(s) : 6 channels
Channel positions : Front: L C R, Side: L R, LFE
Sampling rate : 48.0 KHz
Bit depth : 24 bits
Compression mode : Lossy
Stream size : 1.30 GiB (8%)
Title : DTS 5.1ch 1510 kbps - Одноголосый, Ю.Живов
Language : Russian

Audio #5
ID : 6
Format : DTS
Format/Info : Digital Theater Systems
Codec ID : A_DTS
Duration : 2h 2mn
Bit rate mode : Constant
Bit rate : 1 510 Kbps
Channel(s) : 6 channels
Channel positions : Front: L C R, Side: L R, LFE
Sampling rate : 48.0 KHz
Bit depth : 24 bits
Compression mode : Lossy
Stream size : 1.30 GiB (8%)
Title : DTS 5.1ch 1510 kbps - Одноголосый, А.Кашкин
Language : Russian

Audio #6
ID : 7
Format : DTS
Format/Info : Digital Theater Systems
Codec ID : A_DTS
Duration : 2h 2mn
Bit rate mode : Constant
Bit rate : 1 510 Kbps
Channel(s) : 6 channels
Channel positions : Front: L C R, Side: L R, LFE
Sampling rate : 48.0 KHz
Bit depth : 24 bits
Compression mode : Lossy
Stream size : 1.30 GiB (8%)
Title : DTS 5.1ch 1510 kbps
Language : English

Audio #7
ID : 8
Format : AC-3
Format/Info : Audio Coding 3
Format profile : Dolby Digital
Mode extension : CM (complete main)
Codec ID : A_AC3
Duration : 2h 2mn
Bit rate mode : Constant
Bit rate : 192 Kbps
Channel(s) : 2 channels
Channel positions : Front: L R
Sampling rate : 48.0 KHz
Bit depth : 16 bits
Compression mode : Lossy
Stream size : 169 MiB (1%)
Title : AC3 2.0ch 192 kbps- Комментарии
Language : English

Text
ID : 9
Format : UTF-8
Codec ID : S_TEXT/UTF8
Codec ID/Info : UTF-8 Plain Text
Title : English
Language : English
Свернуть
Не в сети
Профиль  
Начать новую темуОтветить на тему  [ 1 сообщение ] 
Вы не можете начинать темы
Вы не можете отвечать на сообщения
Вы не можете редактировать свои сообщения
Вы не можете удалять свои сообщения