Правила форума

  • В этом разделе создание новых тем Запрещено.
  • Для создания новых тем пользуйтесь Корневым разделом DVD и HD фильмы.
Начать новую темуОтветить на тему  [ Сообщений: 2 ] 
Торрент файл
Размер: 4.55 GB • Зарегистрирован: 1 год 1 месяц • Статус: Проверено
Скачан: 62 раза • Желающих скачать: 0 • Поблагодарили: 13 раз
 Раздают: 0  |  0 KB/s  ]   Качают: 0  |  0 KB/s  ] 
 Полного источника не было 3 часа 
Сообщения
 Добавлено: 2015-10-07 09:35
RG-ELEKTRO
Аватара пользователя
Стаж: 2 года 3 месяца
Сообщений: 7928
Спасибок: 53748
Лайков: 3304
Вне/себя / Self/less


«У бессмертия есть побочные эффекты»

Изображение


Год выпуска: 2015
Страна: США (Endgame Entertainment, Ram Bergman Productions)
Жанр: фантастика, триллер, детектив
Продолжительность: 01:52:12
Перевод: Профессиональный (дубляж) [Лицензия]

Режиссёр: Тарсем Сингх
В ролях: Райан Рейнольдс, Бен Кингсли, Натали Мартинес, Мэттью Гуд, Виктор Гарбер, Дерек Люк, Джейни-Линн Кинчен, Мелора Хардин, Мишель Докери, Сэмюэл Пейдж
Описание: Один ученый нашел способ победить смерть с помощью имплантации своего сознания в молодое тело, созданное методом генной инженерии. Операция эта дорогостоящая и проводится подпольно, а поэтому доступна лишь ограниченному кругу лиц. Умирающий пожилой бизнесмен решается на это и получает возможность прожить еще одну жизнь. Однако когда ему приоткрывается тайна происхождения нового тела, за ним начинает охоту секретная организация, которая не остановится ни перед чем, чтобы защитить свои интересы.

Изображение Изображение Изображение
Качество: BDRip 720p
Формат: MKV
Видео кодек: MPEG-4 AVC
Аудио кодек: DTS
Видео: MPEG-4 AVC, 4719 Кбит/с, 1280x720
Аудио #1: DTS, 6 ch, 1510 Кбит/с [Профессиональный (дубляж)]

"MI"
General
Unique ID : 204261366105804559736221707224004885722 (0x99AB4EE2AFBDA92CB7144B4055D2FCDA)
Complete name : D:\мои загрузки\dsfdsfdsfd3.mkv
Format : Matroska
Format version : Version 4 / Version 2
File size : 45.1 MiB
Duration : 59s 486ms
Overall bit rate : 6 356 Kbps
Encoded date : UTC 2015-10-06 14:56:42
Writing application : mkvmerge v6.9.1 ('Blue Panther') 64bit built on Apr 18 2014 18:23:38
Writing library : libebml v1.3.0 + libmatroska v1.4.1

Video
ID : 1
Format : AVC
Format/Info : Advanced Video Codec
Format profile : High@L4.0
Format settings, CABAC : Yes
Format settings, ReFrames : 4 frames
Codec ID : V_MPEG4/ISO/AVC
Duration : 59s 480ms
Bit rate : 4 719 Kbps
Width : 1 280 pixels
Height : 720 pixels
Display aspect ratio : 16:9
Frame rate mode : Constant
Frame rate : 25.000 fps
Color space : YUV
Chroma subsampling : 4:2:0
Bit depth : 8 bits
Scan type : Progressive
Bits/(Pixel*Frame) : 0.205
Stream size : 33.5 MiB (74%)
Language : English
Default : Yes
Forced : No

Audio
ID : 2
Format : DTS
Format/Info : Digital Theater Systems
Mode : 16
Format settings, Endianness : Big
Codec ID : A_DTS
Duration : 59s 486ms
Bit rate mode : Constant
Bit rate : 1 510 Kbps
Channel(s) : 6 channels
Channel positions : Front: L C R, Side: L R, LFE
Sampling rate : 48.0 KHz
Bit depth : 24 bits
Compression mode : Lossy
Delay relative to video : 8ms
Stream size : 10.7 MiB (24%)
Language : Russian
Default : Yes
Forced : No

Свернуть

Скриншоты
Изображение
Изображение
Изображение
Свернуть

Изображение


Изображение Изображение
Не в сети
Профиль  
 Добавлено: 2015-10-09 20:33 (спустя 2 дня 10 часов)
Стаж: 6 лет 5 месяцев
Сообщений: 175
Лайков: 2
Отличный фильмец :ya_hoo_oo: :bra_vo: .
Не в сети
Профиль  
Начать новую темуОтветить на тему  [ Сообщений: 2 ] 
Вы не можете начинать темы
Вы не можете отвечать на сообщения
Вы не можете редактировать свои сообщения
Вы не можете удалять свои сообщения