Правила форума

  • В этом разделе создание новых тем Запрещено.
  • Для создания новых тем пользуйтесь Корневым разделом DVD и HD фильмы.
Начать новую темуОтветить на тему  [ Сообщений: 5 ] 
Торрент файл
Размер: 14.5 GB • Зарегистрирован: 5 лет 3 месяца • Статус: Проверено
Скачан: 130 раз • Желающих скачать: 0 • Поблагодарили: 36 раз
 Раздают: 0  |  0 KB/s  ]   Качают: 0  |  0 KB/s  ] 
 Полного источника не было 5 месяцев 21 день 
Сообщения
 Добавлено: 2011-08-18 10:29
Модератор релиз-группы
Аватара пользователя
Стаж: 9 лет 1 месяц
Возраст: 97
Сообщений: 11659
Спасибок: 6530
Лайков: 269
Водный мир / Waterworld

Изображение


Год выпуска: 1995
Страна: сша
Жанр: фантастика, боевик, приключения
Продолжительность: 02:15:11
Перевод: Многоголосый закадровый, Киномания + Многоголосый закадровый, ОРТ + Двухголосый закадровый, Премьер Видео Фильм + Оригинальная звуковая дорожка
Субтитры: Русские, Английские

Режиссёр: Кевин Рейнольдс, Кевин Костнер
В ролях: Кевин Костнер, Деннис Хоппер, Джинн Трипплхорн, Тина Мажорино, Майкл Джитер, Джек Блэк, Ким Коутс, Чайм Джирафи, Рик Авилес, Р.Д. Колл
Описание: В далеком будущем полярные снега растаяли, покрыв всю Землю водой. Авторы погружают нас в фантастический мир немногочисленных людей, живущих на воде, где самым дорогим являются пресная вода, земля, еда, сигареты и т. п.

«Курильщики» убивают, грабят, обращают в рабство - используют двигатели внутреннего сгорания. Все остальные пытаются выжить, кто как может, а Кевин Костнер плавает сам по себе на своей фантастической лодке, но объединяет их всех одно - все они ищут остров.

В одной из колоний живут очень красивая женщина и девочка с татуировкой на спине. А татуировка эта - часть карты, на которой и указан этот остров. Естественно, за ней и охотятся «курильщики»...

Изображение
Качество: BDRip
Формат: mkv
Видео кодек: MPEG-4 AVC
Аудио кодек: AC3 (Dolby Digital)
Видео: 1920x1040 at 23.976 fps,@L4.1 x264, - 12,300 Kbps
Аудио #1: Russian: 48 kHz, AC3 5.1 @ 384 Kbps [Многоголосый закадровый, Киномания]
Аудио #2: Russian: 48 kHz, AC3 5.1 @ 384 Kbps [Многоголосый закадровый, ОРТ]
Аудио #3: Russian: 48 kHz, DTS 5.1 @ 768 Kbps [Двухголосый закадровый, Премьер Видео Фильм]
Аудио #4: English: 48 kHz, DTS 5.1 @ 1510 Kbps [Оригинальная звуковая дорожка]
Субтитры: Русские, Английские
Скриншоты
Изображение

Изображение

Изображение

Изображение

Изображение
Свернуть

Mi
Format : Matroska
Format version : Version 2
File size : 14.5 GiB
Duration : 2h 15mn
Overall bit rate : 15.4 Mbps
Movie name : Waterworld (1995)
Encoded date : UTC 2011-01-20 07:13:01
Writing application : mkvmerge v4.4.0 ('Die Wiederkehr') сборка от Oct 31 2010 21:52:48
Writing library : libebml v1.0.0 + libmatroska v1.0.0

Video
ID : 1
Format : AVC
Format/Info : Advanced Video Codec
Format profile : High@L4.1
Format settings, CABAC : Yes
Format settings, ReFrames : 4 frames
Codec ID : V_MPEG4/ISO/AVC
Duration : 2h 15mn
Bit rate : 12.3 Mbps
Width : 1 920 pixels
Height : 1 040 pixels
Display aspect ratio : 16:9
Frame rate : 23.976 fps
Color space : YUV
Chroma subsampling : 4:2:0
Bit depth : 8 bits
Scan type : Progressive
Bits/(Pixel*Frame) : 0.256
Stream size : 11.3 GiB (78%)
Writing library : x264 core 94 r1570 d9db8b3
Encoding settings : cabac=1 / ref=4 / deblock=1:-3:-3 / analyse=0x3:0x113 / me=umh / subme=9 / psy=1 / psy_rd=1.00:0.25 / mixed_ref=1 / me_range=32 / chroma_me=1 / trellis=2 / 8x8dct=1 / cqm=0 / deadzone=21,11 / fast_pskip=0 / chroma_qp_offset=-4 / threads=3 / sliced_threads=0 / nr=0 / decimate=0 / interlaced=0 / constrained_intra=0 / bframes=7 / b_pyramid=2 / b_adapt=2 / b_bias=0 / direct=3 / wpredb=1 / wpredp=2 / keyint=250 / keyint_min=25 / scenecut=40 / intra_refresh=0 / rc_lookahead=50 / rc=2pass / mbtree=1 / bitrate=12262 / ratetol=1.0 / qcomp=0.60 / qpmin=10 / qpmax=51 / qpstep=4 / cplxblur=20.0 / qblur=0.5 / ip_ratio=1.40 / aq=1:0.80
Language : English

Audio #1
ID : 2
Format : AC-3
Format/Info : Audio Coding 3
Mode extension : CM (complete main)
Codec ID : A_AC3
Duration : 2h 15mn
Bit rate mode : Constant
Bit rate : 384 Kbps
Channel(s) : 6 channels
Channel positions : Front: L C R, Side: L R, LFE
Sampling rate : 48.0 KHz
Bit depth : 16 bits
Compression mode : Lossy
Stream size : 371 MiB (3%)
Title : AC3 5.1 @ 384 Kbps [Многоголосый закадровый, Киномания]
Language : Russian

Audio #2
ID : 3
Format : AC-3
Format/Info : Audio Coding 3
Mode extension : CM (complete main)
Codec ID : A_AC3
Duration : 2h 15mn
Bit rate mode : Constant
Bit rate : 448 Kbps
Channel(s) : 6 channels
Channel positions : Front: L C R, Side: L R, LFE
Sampling rate : 48.0 KHz
Bit depth : 16 bits
Compression mode : Lossy
Stream size : 433 MiB (3%)
Title : AC3 5.1 @ 448 Kbps [Многоголосый закадровый, ОРТ]
Language : Russian

Audio #3
ID : 4
Format : DTS
Format/Info : Digital Theater Systems
Codec ID : A_DTS
Duration : 2h 15mn
Bit rate mode : Constant
Bit rate : 755 Kbps
Channel(s) : 6 channels
Channel positions : Front: L C R, Side: L R, LFE
Sampling rate : 48.0 KHz
Bit depth : 24 bits
Compression mode : Lossy
Stream size : 730 MiB (5%)
Title : DTS 5.1 @ 768 Kbps [Двухголосый закадровый, Премьер Видео Фильм]
Language : Russian

Audio #4
ID : 5
Format : DTS
Format/Info : Digital Theater Systems
Codec ID : A_DTS
Duration : 2h 15mn
Bit rate mode : Constant
Bit rate : 1 510 Kbps
Channel(s) : 6 channels
Channel positions : Front: L C R, Side: L R, LFE
Sampling rate : 48.0 KHz
Bit depth : 24 bits
Compression mode : Lossy
Stream size : 1.43 GiB (10%)
Title : DTS 5.1 @ 1510 Kbps [Original]
Language : English

Text #1
ID : 6
Format : UTF-8
Codec ID : S_TEXT/UTF8
Codec ID/Info : UTF-8 Plain Text
Language : Russian

Text #2
ID : 7
Format : UTF-8
Codec ID : S_TEXT/UTF8
Codec ID/Info : UTF-8 Plain Text
Language : English

Text #3
ID : 8
Format : UTF-8
Codec ID : S_TEXT/UTF8
Codec ID/Info : UTF-8 Plain Text
Language : Danish

Text #4
ID : 9
Format : UTF-8
Codec ID : S_TEXT/UTF8
Codec ID/Info : UTF-8 Plain Text
Language : Dutch

Text #5
ID : 10
Format : UTF-8
Codec ID : S_TEXT/UTF8
Codec ID/Info : UTF-8 Plain Text
Language : Finnish

Text #6
ID : 11
Format : UTF-8
Codec ID : S_TEXT/UTF8
Codec ID/Info : UTF-8 Plain Text
Language : French

Text #7
ID : 12
Format : UTF-8
Codec ID : S_TEXT/UTF8
Codec ID/Info : UTF-8 Plain Text
Language : German

Text #8
ID : 13
Format : UTF-8
Codec ID : S_TEXT/UTF8
Codec ID/Info : UTF-8 Plain Text
Language : Italian

Text #9
ID : 14
Format : UTF-8
Codec ID : S_TEXT/UTF8
Codec ID/Info : UTF-8 Plain Text
Language : Norwegian

Text #10
ID : 15
Format : UTF-8
Codec ID : S_TEXT/UTF8
Codec ID/Info : UTF-8 Plain Text
Language : Portuguese

Text #11
ID : 16
Format : UTF-8
Codec ID : S_TEXT/UTF8
Codec ID/Info : UTF-8 Plain Text
Language : Spanish

Text #12
ID : 17
Format : UTF-8
Codec ID : S_TEXT/UTF8
Codec ID/Info : UTF-8 Plain Text
Language : Swedish

Menu
00:00:00.000 : en:1. Main Title; The New World
00:06:29.012 : en:2. Smokers!
00:09:56.052 : en:3. A Stranger In Town
00:25:33.865 : en:4. Dead Out Of the Sun
00:53:20.739 : en:5. Smokers In the Sky
00:59:36.947 : en:6. Rough Trade
01:15:04.291 : en:7. The Barter Outpost
01:21:22.627 : en:8. Down To Dryland
01:25:18.238 : en:9. Going Under
01:39:30.255 : en:10. The Coming Of The Mariner
01:43:48.595 : en:11. No Mercy
01:49:08.041 : en:12. Smoke On the Water
01:55:18.536 : en:13. The Death of "The Deez"
01:57:06.394 : en:14. The Deacon's Last Shot
01:59:40.131 : en:15. Home
02:06:31.542 : en:16. End Titles
Свернуть
Не в сети
Профиль  
 Добавлено: 2011-08-18 10:38 (спустя 9 минут)
Аватара пользователя
Стаж: 8 лет 3 месяца
Возраст: 43
Сообщений: 3290
Спасибок: 21012
Лайков: 3
отличный фильм :co_ol: спасибо
_________________
Изображение
Не в сети
Профиль  
 Добавлено: 2012-03-29 16:01 (спустя 7 месяцев)
Аватара пользователя
Стаж: 8 лет 3 месяца
Возраст: 26
Сообщений: 85
Спасибок: 165
Спасибо за качество фильма. Поставил на закачку. :co_ol:
Не в сети
Профиль  
 Добавлено: 2012-08-11 16:09 (спустя 4 месяца 13 дней)
Стаж: 5 лет 5 месяцев
Сообщений: 7
Старый шикарная ава. А фильм проста шедевр
Не в сети
Профиль  
 Добавлено: 2012-11-17 17:14 (спустя 3 месяца 6 дней)
Стаж: 8 лет 6 месяцев
Сообщений: 12
раздайте пожалуйста..
Не в сети
Профиль  
Начать новую темуОтветить на тему  [ Сообщений: 5 ] 
Вы не можете начинать темы
Вы не можете отвечать на сообщения
Вы не можете редактировать свои сообщения
Вы не можете удалять свои сообщения