Правила форума

  • В этом разделе создание новых тем Запрещено.
  • Для создания новых тем пользуйтесь Корневым разделом DVD и HD фильмы.
Начать новую темуОтветить на тему  [ Сообщений: 3 ] 
Торрент файл
Размер: 4.84 GB • Зарегистрирован: 3 года 1 месяц • Статус: Проверено
Скачан: 20 раз • Желающих скачать: 0 • Поблагодарили: 15 раз
 Раздают: 0  |  0 KB/s  ]   Качают: 0  |  0 KB/s  ] 
 Полного источника не было 1 год 4 месяца 
Сообщения
 Добавлено: 2013-10-23 08:17
Аватара пользователя
Стаж: 6 лет
Сообщений: 201
Спасибок: 449
Лайков: 7
Воин во времени / Time Warrior

Изображение


Год выпуска: 2012
Страна: США (Jaguar Films)
Жанр: Фантастика
Продолжительность: 01:28:43
Перевод: Профессиональный (двухголосый закадровый)(НТВ+)

Режиссёр: Хоакин Родригез
В ролях: ЭйДжи Бенсон, Томас Грэнинджер, Расти Мейерс, Луис Шомэйкер, Кивон Стоувер
Описание: Когда в руках Мэтта и Джимми оказывается пиратская версия одной из самых популярных видеоигр, они думают, что это самая крутая видеоигра, в которую они когда-либо играли. Дети не подозревают, что на самом деле - это устройство для включения избранных в отряды реальных воинов времени…


Файл
Качество: HDTV (1080i)
Видео: MPEG-4 AVC, 7213 Кбит/с, 1920x1080, 25.000 кадр/с
Аудио: AC3, 6 ch, 448 Кбит/с

Скриншоты
Изображение
Изображение
Изображение
Изображение
Изображение
Изображение
Свернуть

MediaInfo
General
Unique ID : 147087943084021236059668455710083537193 (0x6EA81B7EDA8D8E7F5138AEB020285929)
Complete name : /Volumes/MULTIMEDIA/Voin.vo.vremeni.2012.HDTV.ClubTorrent.Soppot.mkv
Format : Matroska
Format version : Version 2
File size : 4.84 GiB
Duration : 1h 28mn
Overall bit rate : 7 817 Kbps
Writing application : Lavf52.64.2
Writing library : Lavf52.64.2

Video
ID : 1
Format : AVC
Format/Info : Advanced Video Codec
Format profile : High@L4.0
Format settings, CABAC : Yes
Format settings, ReFrames : 3 frames
Format settings, GOP : M=4, N=28
Codec ID : V_MPEG4/ISO/AVC
Duration : 1h 28mn
Bit rate : 7 213 Kbps
Width : 1 920 pixels
Height : 1 080 pixels
Display aspect ratio : 16:9
Frame rate mode : Constant
Frame rate : 25.000 fps
Standard : Component
Color space : YUV
Chroma subsampling : 4:2:0
Bit depth : 8 bits
Scan type : Interlaced
Scan order : Top Field First
Bits/(Pixel*Frame) : 0.139
Stream size : 4.47 GiB (92%)
Default : Yes
Forced : No
Color primaries : BT.709
Transfer characteristics : BT.709
Matrix coefficients : BT.709

Audio
ID : 2
Format : AC-3
Format/Info : Audio Coding 3
Mode extension : CM (complete main)
Format settings, Endianness : Big
Codec ID : A_AC3
Duration : 1h 28mn
Bit rate mode : Constant
Bit rate : 448 Kbps
Channel count : 6 channels
Channel positions : Front: L C R, Side: L R, LFE
Sampling rate : 48.0 KHz
Bit depth : 16 bits
Compression mode : Lossy
Stream size : 284 MiB (6%)
Language : Russian
Default : Yes
Forced : No
Свернуть

Изображение


Последний раз редактировалось SKEPTIK 2013-10-25 11:46, всего редактировалось 1 раз.
Не в сети
Профиль  
 Добавлено: 2013-10-24 11:50 (спустя 1 день 3 часа)
Модератор
Аватара пользователя
Стаж: 8 лет 11 месяцев
Сообщений: 516
Спасибок: 26888
Лайков: 1
Внимание: Для DVD и HD-разделов необходимы развернутые технические данные:
Для HD: Отчет MediaInfo или BDInfo (под спойлером)
Не в сети
Профиль  
 Добавлено: 2013-11-16 20:45 (спустя 23 дня)
Аватара пользователя
Стаж: 8 лет
Возраст: 29
Сообщений: 60
Актеров за игру в фильме просто гамбургерами покормили.
Не в сети
Профиль  
Начать новую темуОтветить на тему  [ Сообщений: 3 ] 
Вы не можете начинать темы
Вы не можете отвечать на сообщения
Вы не можете редактировать свои сообщения
Вы не можете удалять свои сообщения