Правила форума

  • В этом разделе создание новых тем Запрещено.
  • Для создания новых тем пользуйтесь Корневым разделом DVD и HD фильмы.
Начать новую темуОтветить на тему  [ Сообщений: 5 ] 
Торрент файл
Размер: 17.83 GB • Зарегистрирован: 4 года 8 месяцев • Статус: Проверено
Скачан: 211 раз • Желающих скачать: 0 • Поблагодарили: 21 раз
 Раздают: 0  |  0 KB/s  ]   Качают: 0  |  0 KB/s  ] 
 Полного источника не было 1 месяц 1 день 
Сообщения
 Добавлено: 2012-03-27 21:39
Модератор
Аватара пользователя
Стаж: 8 лет 1 месяц
Сообщений: 1991
Спасибок: 129863
Лайков: 20
Воин / Warrior


«Family is worth fighting for.»



Изображение
Год выпуска: 2011
Страна: Изображение США
Жанр: боевик, драма, спорт
Продолжительность:
02:19:56

Перевод: Профессиональный (многоголосый, закадровый) ЛИЦЕНЗИЯ, Авторский (Сербин Юрий), Оригинальный

Режиссер: Гэвин О’Коннор
Сценарий: Гэвин О’Коннор, Клиф Дорфман, Энтони Тамбакис
Продюсер: Гэвин О’Коннор, Грег О’Коннор, Лиза Эллзи, Джон Дж. Келли, Джэми Маршалл
Оператор: Масанобу Такаянаги
Композитор: Марк Айшем

В ролях:
Джоэл Эдгертон (Brendan Conlon), Том Харди (Tommy Conlon), Ник Нолти (Paddy Conlon), Дженнифер Моррисон (Tess Conlon), Фрэнк Грилло (Frank Campana), Кевин Данн (Principal Zito), Максимилианно Эрнандез (Colt Boyd), Брайан Коллен (играет самого себя), Сэм Шеридан (играет самого себя), Фернандо Чиен (Fenroy), Джэйк МакЛафлин (Mark Bradford), Ванесса Мартинез (Pilar Fernandez)

Описание: Младший сын спившегося боксера возвращается домой, чтобы отец тренировал его для предстоящего турнира по боевым искусствам. Однако на этом пути бойцу придется столкнуться со своим старшим братом.


Изображение: 8.275 (11 631)
Изображение: 8.30 (73 893)

MPAA: Изображение - Детям до 13 лет просмотр не желателен

Доп. Информация
Бюджет: $25 000 000
Сборы в США: $13 657 115
Сборы в мире: $23 057 115
Мировая премьера: 9 сентября 2011
Релиз на DVD: 29 марта 2012, «Новый Диск»

Свернуть

Релиз группы: Изображение
Качество: BDRip 1080p R5

Формат: MKV
Видео: AVC; 1920x800 (2.40:1); 15000 Kbps; 23,976 fps; 0,407 bpp
Аудио №1: Russian; AC3; 224 Kbps; CBR; 2 ch; 16 bit Профессиональный (многоголосый, закадровый)
Аудио №2: Russian; DTS; 1509 Kbps; CBR; 6 ch; 24 bit [Ю.Сербин]
Аудио №3: English; DTS; 1509 Kbps; CBR; 6 ch; 24 bit
Субтитры №1: Russian
Субтитры №2: English
Субтитры №3: English
Изображение


Знаете ли Вы, что...
  • Съемки фильма проходили в Питтсбурге и Атлантик-сити.
  • Прототипом бойца по имени Коба, сыграного Куртом Энглом, является многократный чемпион мира по боям без правил Федор Емельяненко. Для этой роли Курт Энгл изучил все записи боев Федора Емельяненко, сбросил 14 килограмм веса и три месяца учил русский язык.
  • Для роли Том Харди набрал 12 килограмм мышечной массы.
  • Техническим консультантом фильма был Грег Джексон, неоднократный победитель в категории «ММА тренер года».
Свернуть
BDInfo
Format : Matroska
File size : 17.8 GiB
Duration : 2h 19mn
Overall bit rate : 18.2 Mbps
Encoded date : UTC 2012-03-26 18:46:15
Writing application : mkvmerge v4.0.0 ('The Stars were mine') сборка от Jun 6 2010 16:18:42
Writing library : libebml v1.0.0 + libmatroska v1.0.0

Video
ID : 1
Format : AVC
Format/Info : Advanced Video Codec
Format profile : High@L4.1
Format settings, CABAC : Yes
Format settings, ReFrames : 5 frames
Codec ID : V_MPEG4/ISO/AVC
Duration : 2h 19mn
Bit rate : 15.0 Mbps
Width : 1 920 pixels
Height : 800 pixels
Display aspect ratio : 2.40:1
Frame rate : 23.976 fps
Color space : YUV
Chroma subsampling : 4:2:0
Bit depth : 8 bits
Scan type : Progressive
Bits/(Pixel*Frame) : 0.407
Stream size : 14.3 GiB (80%)
Writing library : x264 core 120 r2119 0637cd6
Encoding settings : cabac=1 / ref=5 / deblock=1:-3:-3 / analyse=0x3:0x133 / me=tesa / subme=10 / psy=1 / psy_rd=1.20:0.00 / mixed_ref=1 / me_range=16 / chroma_me=1 / trellis=2 / 8x8dct=1 / cqm=0 / deadzone=21,11 / fast_pskip=0 / chroma_qp_offset=-2 / threads=24 / sliced_threads=0 / nr=0 / decimate=0 / interlaced=0 / bluray_compat=0 / constrained_intra=0 / bframes=9 / b_pyramid=2 / b_adapt=2 / b_bias=0 / direct=3 / weightb=1 / open_gop=0 / weightp=2 / keyint=250 / keyint_min=23 / scenecut=40 / intra_refresh=0 / rc=2pass / mbtree=0 / bitrate=15000 / ratetol=1.0 / qcomp=0.60 / qpmin=0 / qpmax=69 / qpstep=4 / cplxblur=20.0 / qblur=0.5 / ip_ratio=1.40 / pb_ratio=1.30 / aq=2:0.55
Language : English

Audio #1
ID : 2
Format : AC-3
Format/Info : Audio Coding 3
Mode extension : CM (complete main)
Codec ID : A_AC3
Duration : 2h 19mn
Bit rate mode : Constant
Bit rate : 224 Kbps
Channel(s) : 2 channels
Channel positions : Front: L R
Sampling rate : 48.0 KHz
Bit depth : 16 bits
Compression mode : Lossy
Delay relative to video : 1s 825ms
Stream size : 224 MiB (1%)
Title : MVO
Language : Russian

Audio #2
ID : 3
Format : DTS
Format/Info : Digital Theater Systems
Format profile : ES
Codec ID : A_DTS
Duration : 2h 19mn
Bit rate mode : Constant
Bit rate : 1 510 Kbps
Channel(s) : 6 channels
Channel positions : Front: L C R, Side: L R, LFE
Sampling rate : 48.0 KHz
Bit depth : 24 bits
Compression mode : Lossy
Delay relative to video : 1s 836ms
Stream size : 1.48 GiB (8%)
Title : VO Serbin
Language : Russian

Audio #3
ID : 4
Format : DTS
Format/Info : Digital Theater Systems
Codec ID : A_DTS
Duration : 2h 19mn
Bit rate mode : Constant
Bit rate : 1 510 Kbps
Channel(s) : 6 channels
Channel positions : Front: L C R, Side: L R, LFE
Sampling rate : 48.0 KHz
Bit depth : 24 bits
Compression mode : Lossy
Delay relative to video : 11ms
Stream size : 1.48 GiB (8%)
Language : English

Text #1
ID : 5
Format : UTF-8
Codec ID : S_TEXT/UTF8
Codec ID/Info : UTF-8 Plain Text
Language : Russian

Text #2
ID : 6
Format : UTF-8
Codec ID : S_TEXT/UTF8
Codec ID/Info : UTF-8 Plain Text
Language : English

Text #3
ID : 7
Format : UTF-8
Codec ID : S_TEXT/UTF8
Codec ID/Info : UTF-8 Plain Text
Title : SDH
Language : English

Menu
00:00:00.000 : en:00:00:00.000
00:10:32.840 : en:00:10:32.840
00:16:46.714 : en:00:16:46.714
00:26:34.551 : en:00:26:34.551
00:39:08.971 : en:00:39:08.971
00:45:49.622 : en:00:45:49.622
00:51:28.919 : en:00:51:28.919
00:58:27.796 : en:00:58:27.796
01:06:02.458 : en:01:06:02.458
01:14:27.254 : en:01:14:27.254
01:22:32.906 : en:01:22:32.906
01:30:35.638 : en:01:30:35.638
01:40:46.040 : en:01:40:46.040
01:52:55.977 : en:01:52:55.977
02:00:21.089 : en:02:00:21.089
02:06:50.394 : en:02:06:50.394
Свернуть
Скриншоты
Изображение
Изображение
Изображение
Свернуть

_________________
Себе ты можешь не качать, но раздавать другим обязан!
Не в сети
Профиль  
 Добавлено: 2012-03-28 13:08 (спустя 15 часов)
Аватара пользователя
Стаж: 9 лет
Возраст: 29
Сообщений: 240
раздайте!
Не в сети
Профиль  
 Добавлено: 2012-03-29 17:27 (спустя 1 день 4 часа)
Кинокомментатор
Аватара пользователя
Стаж: 9 лет 1 месяц
Сообщений: 1332
Лайков: 54
"Папа ты будешь нами гордиться!" вот такой вот слоган нужен))
кино конечно классное! цепляет! держит! интересно смотрится! но... это всё уже было) я только что посмотрев Война, вспоминаю фильм Боей и... разница конечно есть) но... фильмы про единоборства все похожи! спору нет)
фильм про двух братьев, про семью, про отношения с родителями... про отношения с женой!... в общем смотреть обязательно, но в любимые не пойдёт, может просто похожей ситуации у меня не будет никогда, ибо брата нет... 8/10

ЗЫ да и ещё эта спарта, по началу очень напоминала какой то боевичок про единоборства конца 90х) с Сашей Митчелом)))
_________________
Я ВКонтакте
Не в сети
Профиль  
 Добавлено: 2012-07-13 20:58 (спустя 3 месяца 15 дней)
Аватара пользователя
Стаж: 6 лет 11 месяцев
Сообщений: 25
Раздайте пожалуйста!!Спасибо
Не в сети
Профиль  
 Добавлено: 2015-08-08 19:31 (спустя 3 года)
Стаж: 1 год 4 месяца
Сообщений: 3
Спасибок: 1
Ребята, раздайте. Еще немного осталось
Не в сети
Профиль  
Начать новую темуОтветить на тему  [ Сообщений: 5 ] 
Вы не можете начинать темы
Вы не можете отвечать на сообщения
Вы не можете редактировать свои сообщения
Вы не можете удалять свои сообщения