Правила форума

  • В этом разделе создание новых тем Запрещено.
  • Для создания новых тем пользуйтесь Корневым разделом DVD и HD фильмы.
Начать новую темуОтветить на тему  [ Сообщений: 5 ] 
Торрент файл
Размер: 5.83 GB • Зарегистрирован: 4 года 11 месяцев • Статус: T Временный релиз
Скачан: 94 раза • Желающих скачать: 0 • Поблагодарили: 16 раз
 Раздают: 0  |  0 KB/s  ]   Качают: 0  |  0 KB/s  ] 
 Полного источника не было 2 года 4 месяца 
Сообщения
 Добавлено: 2011-12-07 22:27
Top-releaser
Аватара пользователя
Стаж: 8 лет 7 месяцев
Сообщений: 1286
Спасибок: 3420
Лайков: 7
Воин / Warrior


«Family is worth fighting for.»

Изображение
Год выпуска: 2011
Страна: США
Жанр: боевик, драма, спорт
Продолжительность: 02:20:22
Перевод: Любительский (двухголосый)

Режиссер: Гэвин О’Коннор
Сценарий: Гэвин О’Коннор, Клиф Дорфман, Энтони Тамбакис
Продюсер: Грег О’Коннор, Лиза Эллзи, Джон Дж. Келли, Джэми Маршалл, Дэвид Мимран
Оператор: Масанобу Такаянаги
Композитор: Марк Айшем

В ролях: Джоэл Эдгертон (Brendan Conlon), Том Харди (Tommy Conlon), Ник Нолти (Paddy Conlon), Дженнифер Моррисон (Tess Conlon), Фрэнк Грилло (Frank Campana), Кевин Данн (Principal Zito), Максимилианно Эрнандез (Colt Boyd), Брайан Коллен (играет самого себя), Сэм Шеридан (играет самого себя), Фернандо Чиен (Fenroy, (as Fernando Funan Chien)), Джэйк МакЛафлин (Mark Bradford), Ванесса Мартинез (Pilar Fernandez)

Описание: Младший сын спившегося боксера возвращается домой, чтобы отец тренировал его для предстоящего турнира по боевым искусствам. Однако, на этом пути бойцу придется столкнуться со своим старшим братом.

Релиз: Изображение Раздача: Изображение

Изображение

Бюджет: $25 000 000
Сборы в США: $13 657 115
Сборы в мире: $22 157 115
Мировая премьера: 9 сентября 2011

Знаете ли Вы, что...
  • Съемки фильма проходили в Питтсбурге и Атлантик-сити.
  • Прототипом бойца по имени Коба, сыграного Куртом Энглом, является многократный чемпион мира по боям без правил Федор Емельяненко. Для этой роли Курт Энгл изучил все записи боев Федора Емельяненко, сбросил 14 килограмм веса и три месяца учил русский язык.
Свернуть

Изображение
Качество: BDRip
Формат: Matroska
Видео: AVC; 1280x536 (2.40:1); 4056 kbps; 23,976 fps; 0,247 bit/pixel
Аудио №1: Russian; AC3; 384 kbps; CBR; 6 channels; 16 bit
Аудио №2: English; DTS; 1509 kbps; CBR; 6 channels; 24 bit

Изображение
MediaInfo
General

Complete name : Voin.2011.L2.BDRip.720p.[R.G.KINOvNINO].mkv
Format : Matroska
Format version : Version 2
File size : 5.83 GiB
Duration : 2h 20mn
Overall bit rate : 5 950 Kbps
Movie name : UNIONGANG.TV TVB-
Encoded date : UTC 2011-12-07 11:56:43
Writing application : mkvmerge v5.0.1 ('Es ist Sommer') built on Oct 9 2011 11:55:43
Writing library : libebml v1.2.2 + libmatroska v1.3.0

Video
ID : 1
Format : AVC
Format/Info : Advanced Video Codec
Format profile : High@L4.1
Format settings, CABAC : Yes
Format settings, ReFrames : 5 frames
Codec ID : V_MPEG4/ISO/AVC
Duration : 2h 20mn
Bit rate : 4 056 Kbps
Width : 1 280 pixels
Height : 536 pixels
Display aspect ratio : 2.40:1
Frame rate : 23.976 fps
Color space : YUV
Chroma subsampling : 4:2:0
Bit depth : 8 bits
Scan type : Progressive
Bits/(Pixel*Frame) : 0.247
Stream size : 3.86 GiB (66%)
Writing library : x264 core 120 r2119 0637cd6
Encoding settings : cabac=1 / ref=5 / deblock=1:0:0 / analyse=0x3:0x133 / me=umh / subme=8 / psy=1 / psy_rd=1.00:0.00 / mixed_ref=1 / me_range=16 / chroma_me=1 / trellis=1 / 8x8dct=1 / cqm=0 / deadzone=21,11 / fast_pskip=0 / chroma_qp_offset=-2 / threads=18 / sliced_threads=0 / nr=0 / decimate=1 / interlaced=0 / bluray_compat=0 / constrained_intra=0 / bframes=3 / b_pyramid=2 / b_adapt=1 / b_bias=0 / direct=1 / weightb=1 / open_gop=0 / weightp=2 / keyint=240 / keyint_min=24 / scenecut=40 / intra_refresh=0 / rc_lookahead=40 / rc=2pass / mbtree=1 / bitrate=4056 / ratetol=1.0 / qcomp=0.60 / qpmin=0 / qpmax=69 / qpstep=4 / cplxblur=20.0 / qblur=0.5 / ip_ratio=1.40 / aq=1:1.00
Language : English

Audio #1
ID : 2
Format : AC-3
Format/Info : Audio Coding 3
Mode extension : CM (complete main)
Codec ID : A_AC3
Duration : 2h 20mn
Bit rate mode : Constant
Bit rate : 384 Kbps
Channel(s) : 6 channels
Channel positions : Front: L C R, Side: L R, LFE
Sampling rate : 48.0 KHz
Bit depth : 16 bits
Compression mode : Lossy
Stream size : 386 MiB (6%)
Title : L2
Language : Russian

Audio #2
ID : 3
Format : DTS
Format/Info : Digital Theater Systems
Codec ID : A_DTS
Duration : 2h 20mn
Bit rate mode : Constant
Bit rate : 1 510 Kbps
Channel(s) : 6 channels
Channel positions : Front: L C R, Side: L R, LFE
Sampling rate : 48.0 KHz
Bit depth : 24 bits
Compression mode : Lossy
Stream size : 1.48 GiB (25%)
Language : English
Свернуть

Скриншоты

Изображение

Изображение

Изображение

Изображение

Свернуть
Не в сети
Профиль  
 Добавлено: 2011-12-10 01:29 (спустя 2 дня 3 часа)
Стаж: 5 лет 3 месяца
Сообщений: 151
Лайков: 2
Полнейшая чушь!Зря качал!
Не в сети
Профиль  
 Добавлено: 2011-12-10 10:35 (спустя 9 часов)
Top-releaser
Аватара пользователя
Стаж: 8 лет 7 месяцев
Сообщений: 1286
Спасибок: 3420
Лайков: 7

09лёшик09:

Полнейшая чушь!Зря качал!
Чушь вы несёте. Фильм отличный, и рейтинг на двух разных кинопорталах говорит сам за себя. Сам смотрел, рекомендую к просмотру.
Не в сети
Профиль  
 Добавлено: 2012-01-09 22:01 (спустя 30 дней)
Стаж: 8 лет 8 месяцев
Сообщений: 22
Спасибок: 41
Перевод ужасен, в русской звуковой дорожке в моменты боёв - перегрузка, сплошной треск. Не качайте этот релиз, испортите себе впечатление от хорошего фильма.
Не в сети
Профиль  
 Добавлено: 2012-01-09 22:12 (спустя 10 минут)
Аватара пользователя
Стаж: 8 лет 10 месяцев
Сообщений: 93
Спасибок: 258
фильм шикарен, на максимальное правдоподобие не претендует, но всё же хорош
По поводу перевода: смотрел другой релиз в оригинале с субтитрами, всё устраивает
Не в сети
Профиль  
Начать новую темуОтветить на тему  [ Сообщений: 5 ] 
Вы не можете начинать темы
Вы не можете отвечать на сообщения
Вы не можете редактировать свои сообщения
Вы не можете удалять свои сообщения