Правила форума

  • В этом разделе создание новых тем Запрещено.
  • Для создания новых тем пользуйтесь Корневым разделом DVD и HD фильмы.
Начать новую темуОтветить на тему  [ Сообщений: 8 ] 
Торрент файл
Размер: 11.96 GB • Зарегистрирован: 4 года 11 месяцев • Статус: Проверено
Скачан: 168 раз • Желающих скачать: 0 • Поблагодарили: 32 раза
 Раздают: 0  |  0 KB/s  ]   Качают: 0  |  0 KB/s  ] 
 Полного источника не было 1 год 3 месяца 
Сообщения
 Добавлено: 2011-12-28 14:58
DVD Release Group
Аватара пользователя
Стаж: 7 лет 1 месяц
Сообщений: 3546
Спасибок: 246983
Лайков: 1018
Воин

Warrior


Изображение


Год выпуска: 2011
Страна: США
Жанр: Боевик, драма, спорт
Продолжительность: 02:20:22
Перевод: Профессиональный (одноголосый) Ю. Сербин
Субтитры: English, English SDH, Spanish
Режиссер: Гэвин О’Коннор
В ролях: Джоэл Эдгертон, Том Харди, Ник Нолти, Дженнифер Моррисон, Фрэнк Грилло, Кевин Данн, Максимилианно Эрнандез, Брайан Коллен, Сэм Шеридан, Фернандо Чиен
Описание: Младший сын спившегося боксера возвращается домой, чтобы отец тренировал его для предстоящего турнира по боевым искусствам. Однако, на этом пути бойцу придется столкнуться со своим старшим братом.
Качество: BDRip
Формат: MKV
Видео кодек: H.264
Аудио кодек: DTS
Видео: 1280x534 at 23.976 fps, x264@L4.1, 2pass, ~9000 kbps avg
Аудио:
Аудио Rus: 48kHz 6ch 1536kbps
Аудио Eng: 48kHz 6ch 1536kbps
Аудио Eng: 48kHz 2ch 224kbps |Commentary with Gavin O'Connor, Anthony Tambakis, Joel Edgerton|
"MediaInfo"

Уникальный идентификатор : 179141827453472670638287630039685820769 (0x86C57602AFB05043AD32AFED382C7161)
Полное имя : Воин.mkv
Формат : Matroska
Версия формата : Version 2
Размер файла : 12,0 Гбайт
Продолжительность : 2 ч. 19 м.
Общий поток : 12,2 Мбит/сек
Название фильма : Warrior (2011) - Release for HDCLUB
Дата кодирования : UTC 2011-12-27 16:01:07
Программа кодирования : mkvmerge v5.2.0 ('I can't explain') built on Dec 18 2011 18:12:03
Библиотека кодирования : libebml v1.2.3 + libmatroska v1.3.0

Видео
Идентификатор : 1
Формат : AVC
Формат/Информация : Advanced Video Codec
Профиль формата : High@L4.1
Параметр CABAC формата : Да
Параметр ReFrames формата : 12 кадров
Идентификатор кодека : V_MPEG4/ISO/AVC
Продолжительность : 2 ч. 19 м.
Битрейт : 9000 Кбит/сек
Ширина : 1280 пикселей
Высота : 534 пикселя
Соотношение сторон : 2,40:1
Частота кадров : 23,976 кадра/сек
Цветовое пространство : YUV
Субдискретизация насыщенности : 4:2:0
Битовая глубина : 8 бит
Тип развёртки : Прогрессивная
Бит/(Пиксели*Кадры) : 0.549
Размер потока : 8,56 Гбайт (72%)
Заголовок : Warrior (2011) - Release for HDCLUB
Библиотека кодирования : x264 core 120 r2120 0c7dab9
Настройки программы : cabac=1 / ref=12 / deblock=1:-3:-3 / analyse=0x3:0x133 / me=tesa / subme=11 / psy=1 / psy_rd=1.05:0.05 / mixed_ref=1 / me_range=24 / chroma_me=1 / trellis=2 / 8x8dct=1 / cqm=0 / deadzone=21,11 / fast_pskip=0 / chroma_qp_offset=-3 / threads=12 / sliced_threads=0 / nr=0 / decimate=0 / interlaced=0 / bluray_compat=0 / constrained_intra=0 / bframes=7 / b_pyramid=2 / b_adapt=2 / b_bias=0 / direct=3 / weightb=1 / open_gop=0 / weightp=2 / keyint=250 / keyint_min=23 / scenecut=40 / intra_refresh=0 / rc=2pass / mbtree=0 / bitrate=9000 / ratetol=1.0 / qcomp=0.60 / qpmin=0 / qpmax=69 / qpstep=4 / cplxblur=20.0 / qblur=0.5 / ip_ratio=1.40 / pb_ratio=1.30 / aq=1:0.60
Язык : English
Default : Да
Forced : Нет

Аудио #1
Идентификатор : 2
Формат : DTS
Формат/Информация : Digital Theater Systems
Профиль формата : ES
Идентификатор кодека : A_DTS
Продолжительность : 2 ч. 19 м.
Вид битрейта : Постоянный
Битрейт : 1510 Кбит/сек
Каналы : 6 каналов
Расположение каналов : Front: L C R, Side: L R, LFE
Частота : 48,0 КГц
Битовая глубина : 24 бит
Метод сжатия : С потерями
Размер потока : 1,48 Гбайт (12%)
Язык : Russian
Default : Да
Forced : Нет

Аудио #2
Идентификатор : 3
Формат : DTS
Формат/Информация : Digital Theater Systems
Идентификатор кодека : A_DTS
Продолжительность : 2 ч. 19 м.
Вид битрейта : Постоянный
Битрейт : 1510 Кбит/сек
Каналы : 6 каналов
Расположение каналов : Front: L C R, Side: L R, LFE
Частота : 48,0 КГц
Битовая глубина : 24 бит
Метод сжатия : С потерями
Размер потока : 1,48 Гбайт (12%)
Язык : English
Default : Нет
Forced : Нет

Аудио #3
Идентификатор : 4
Формат : AC-3
Формат/Информация : Audio Coding 3
Расширение режима : CM (complete main)
Идентификатор кодека : A_AC3
Продолжительность : 2 ч. 19 м.
Вид битрейта : Постоянный
Битрейт : 224 Кбит/сек
Каналы : 2 канала
Расположение каналов : Front: L R
Частота : 48,0 КГц
Битовая глубина : 16 бит
Метод сжатия : С потерями
Размер потока : 224 Мбайт (2%)
Заголовок : Commentary with Gavin O'Connor, Anthony Tambakis, Joel Edgerton
Язык : English
Default : Нет
Forced : Нет

Текст #1
Идентификатор : 5
Формат : UTF-8
Идентификатор кодека : S_TEXT/UTF8
Идентификатор кодека/Информация : UTF-8 Plain Text
Язык : English
Default : Нет
Forced : Нет

Текст #2
Идентификатор : 6
Формат : UTF-8
Идентификатор кодека : S_TEXT/UTF8
Идентификатор кодека/Информация : UTF-8 Plain Text
Заголовок : SDH
Язык : English
Default : Нет
Forced : Нет

Текст #3
Идентификатор : 7
Формат : UTF-8
Идентификатор кодека : S_TEXT/UTF8
Идентификатор кодека/Информация : UTF-8 Plain Text
Заголовок : Latino
Язык : Spanish
Default : Нет
Forced : Нет

Меню
00:00:00.000 : en:00:00:00.000
00:10:32.840 : en:00:10:32.840
00:16:46.714 : en:00:16:46.714
00:26:34.551 : en:00:26:34.551
00:39:08.971 : en:00:39:08.971
00:45:49.622 : en:00:45:49.622
00:51:28.919 : en:00:51:28.919
00:58:27.796 : en:00:58:27.796
01:06:02.458 : en:01:06:02.458
01:14:27.254 : en:01:14:27.254
01:22:32.906 : en:01:22:32.906
01:30:35.638 : en:01:30:35.638
01:40:46.040 : en:01:40:46.040
01:52:55.977 : en:01:52:55.977
02:00:21.089 : en:02:00:21.089
02:06:50.394 : en:02:06:50.394
Свернуть
"Скриншоты"

Изображение
Изображение
Изображение
Изображение
Свернуть
Раздача группы:
Изображение
В сети
Профиль  
 Добавлено: 2011-12-28 20:20 (спустя 5 часов)
Аватара пользователя
Стаж: 5 лет 7 месяцев
Возраст: 26
Сообщений: 224
Спасибок: 6
О) Первый)) Качаю качаю
_________________
Изображение
Не в сети
Профиль  
 Добавлено: 2011-12-28 23:03 (спустя 2 часа 43 минуты)
Аватара пользователя
Стаж: 7 лет 10 месяцев
Сообщений: 88
А когда Дубляж выйдит ? ? ?
Не в сети
Профиль  
 Добавлено: 2011-12-28 23:08 (спустя 4 минуты)
DVD Release Group
Аватара пользователя
Стаж: 7 лет 1 месяц
Сообщений: 3546
Спасибок: 246983
Лайков: 1018
robocop
Пока неизвестно.
А его может и вообще не будет. :(
В сети
Профиль  
 Добавлено: 2012-01-03 18:17 (спустя 5 дней)
Аватара пользователя
Стаж: 7 лет
Сообщений: 39
душевный фильмец
Не в сети
Профиль  
 Добавлено: 2012-01-06 13:29 (спустя 2 дня 19 часов)
Стаж: 5 лет 9 месяцев
Сообщений: 625
Лайков: 43
Фильм просто бомба, всем смотреть!! :sh_ok:
Не в сети
Профиль  
 Добавлено: 2012-01-07 20:12 (спустя 1 день 6 часов)
Стаж: 5 лет
Сообщений: 59
спасибо
Не в сети
Профиль  
 Добавлено: 2012-01-09 21:17 (спустя 2 дня 1 час)
Стаж: 8 лет
Сообщений: 27
Спасибок: 26
Лайков: 1

Petruha:

Фильм просто бомба, всем смотреть!! :sh_ok:
Фильм без сюжета, час мучался, потом стал мотать.
Лучше скачайте все бои Федора Емельяненко. Вот там - не оторваться от экрана.
Не в сети
Профиль  
Начать новую темуОтветить на тему  [ Сообщений: 8 ] 
Вы не можете начинать темы
Вы не можете отвечать на сообщения
Вы не можете редактировать свои сообщения
Вы не можете удалять свои сообщения