Правила форума

  • В этом разделе создание новых тем Запрещено.
  • Для создания новых тем пользуйтесь Корневым разделом DVD и HD фильмы.
Начать новую темуОтветить на тему  [ 1 сообщение ] 
Торрент файл
Размер: 4.75 GB • Зарегистрирован: 4 года 4 месяца • Статус: Проверено
Скачан: 11 раз • Желающих скачать: 0 • Поблагодарили: 3 раза
 Раздают: 0  |  0 KB/s  ]   Качают: 0  |  0 KB/s  ] 
 Полного источника не было 1 год 10 месяцев 
Сообщения
 Добавлено: 2012-07-27 18:03
Top-releaser
Аватара пользователя
Стаж: 6 лет 7 месяцев
Сообщений: 2078
Спасибок: 3230
Лайков: 9
Изображение

Вокруг света за 80 дней / Around the World in 80 Days


Год выпуска: 2004
Страна: США, Германия, Великобритания, Ирландия
Слоган: «Let your imagination soar.»
Жанр: боевик, мелодрама, комедия, приключения, семейный, вестерн
Продолжительность: 02:00:06
Перевод: Профессиональный (полное дублирование)
Режиссер: Фрэнк Корачи
Сценарий: Дэвид Н. Титчер, Дэвид Бенулло, Дэвид Эндрю Голдстин, Жюль Верн
Продюсер: Филлис Алиа, Алекс Люн, Хэл Либерман, Хеннинг Молфентер, Тьерри Поток
Оператор: Фил Мейхью
Композитор: Тревор Джонс, Дэвид Стюарт
В ролях: Джеки Чан, Стив Куган, Роберт Файф, Джим Броудбент, Иэн МакНис, Дэвид Райалл, Роджер Хэммонд, Адам Годли, Карен Мок, Ховард Купер, Дэниэл Хинчклифф, Wolfram Teufel
Бюджет: $110 000 000
Сборы в мире: $72 178 895
Описание: Эксцентричный лондонский изобретатель Филеас Фогг раскрыл тайны полетов, электричества и многие другие, но общество не принимает его, считая сумасшедшим. Фоггу очень хочется, чтобы к нему относились серьезно, и он заключает необычное пари с лордом Келвином, главой Королевской академии наук: он берется совершить путешествие вокруг земного шара не более чем за 80 дней.
Вместе со своим лакеем Паспарту и жаждущей острых ощущений французской художницей Моник Фогг пускается в безумную, захватывающую кругосветную гонку по суше, морю и воздуху. Во время головокружительного путешествия наши герои попадают в самые экзотические уголки планеты. В пути их ждут многочисленные приключения и препятствия
Изображение
Раздача группы: Изображение
Качество: BDRip, 720p
Формат: Matroska
Видео:AVC; 1280x544 (2.35:1); 4459 Kbps; 23,976 fps; 0,267 bit/pixel
Аудио №1: Russian; AC3; 448 Kbps; CBR; 6 ch
Аудио №2: English; AC3; 640 Kbps; CBR; 6 ch
Субтитры: Russian, English

"Знаете ли Вы, что..."
  • Съемки картины начались 13-го марта 2003 года в Тайланде. В середине апреля съемки переместились в Берлин (студии Babelsberg), где продолжались следующие три месяца до конца июня того же года. Постпродакшн длился вплоть до февраля 2004 года.
Свернуть
MediaInfo
Общее
Уникальный идентификатор : 229426523939639263460032753726301687930

(0xAC99F0F5B52EAC9192AEE8804258507A)
Полное имя : Z:\WWW\TR-Downloads\Around.The.World.In.80.Days.720p

[R.G.Daredevil].mkv
Формат : Matroska
Версия формата : Version 1
Размер файла : 4,75 Гбайт
Продолжительность : 2 ч. 0 м.
Общий поток : 5661 Кбит/сек
Название фильма : Around The World In 80 Days (2004)
Дата кодирования : UTC 2009-01-22 17:42:57
Программа кодирования : mkvmerge v2.4.0 ('Fumbling Towards Ecstasy') built on Oct 11 2008

20:13:15
Библиотека кодирования : libebml v0.7.7 + libmatroska v0.8.1

Видео
Идентификатор : 1
Формат : AVC
Формат/Информация : Advanced Video Codec
Профиль формата : High@L4.1
Параметр CABAC формата : Да
Параметр ReFrames формата : 5 кадров
Идентификатор кодека : V_MPEG4/ISO/AVC
Продолжительность : 2 ч. 0 м.
Битрейт : 4569 Кбит/сек
Ширина : 1280 пикселей
Высота : 544 пикселя
Соотношение сторон : 2,35:1
Частота кадров : 23,976 кадра/сек
Цветовое пространство : YUV
Субдискретизация насыщенности : 4:2:0
Битовая глубина : 8 бит
Тип развёртки : Прогрессивная
Бит/(Пиксели*Кадры) : 0.274
Размер потока : 3,74 Гбайт (79%)
Заголовок : Around.The.World.In.80.Days.2004.720p.Bluray.x264-FSiHD
Библиотека кодирования : x264 core 65 r1077M e46f648
Настройки программы : cabac=1 / ref=5 / deblock=1:0:0 / analyse=0x3:0x133 / me=umh /

subme=7 / psy_rd=1.0:0.0 / mixed_ref=1 / me_range=16 / chroma_me=1 / trellis=1 / 8x8dct=1 / cqm=0 /

deadzone=21,11 / chroma_qp_offset=-2 / threads=3 / nr=0 / decimate=1 / mbaff=0 / bframes=3 / b_pyramid=1 /

b_adapt=1 / b_bias=0 / direct=1 / wpredb=1 / keyint=250 / keyint_min=25 / scenecut=40(pre) / rc=2pass /

bitrate=4569 / ratetol=1.0 / qcomp=0.60 / qpmin=10 / qpmax=51 / qpstep=4 / cplxblur=20.0 / qblur=0.5 /

ip_ratio=1.40 / pb_ratio=1.30 / aq=1:1.00
Язык : English
Default : Да
Forced : Нет

Аудио #1
Идентификатор : 2
Формат : AC-3
Формат/Информация : Audio Coding 3
Расширение режима : CM (complete main)
Параметр Endianness формата : Big
Идентификатор кодека : A_AC3
Продолжительность : 2 ч. 0 м.
Вид битрейта : Постоянный
Битрейт : 448 Кбит/сек
Каналы : 6 каналов
Расположение каналов : Front: L C R, Side: L R, LFE
Частота : 48,0 КГц
Битовая глубина : 16 бит
Метод сжатия : С потерями
Размер потока : 385 Мбайт (8%)
Заголовок : AC3 5.1 448 kbps
Язык : Russian
Default : Да
Forced : Нет

Аудио #2
Идентификатор : 3
Формат : AC-3
Формат/Информация : Audio Coding 3
Расширение режима : CM (complete main)
Параметр Endianness формата : Big
Идентификатор кодека : A_AC3
Продолжительность : 2 ч. 0 м.
Вид битрейта : Постоянный
Битрейт : 640 Кбит/сек
Каналы : 6 каналов
Расположение каналов : Front: L C R, Side: L R, LFE
Частота : 48,0 КГц
Битовая глубина : 16 бит
Метод сжатия : С потерями
Размер потока : 550 Мбайт (11%)
Заголовок : AC3 5.1 640 kbps
Язык : English
Default : Нет
Forced : Нет

Текст #1
Идентификатор : 4
Формат : UTF-8
Идентификатор кодека : S_TEXT/UTF8
Идентификатор кодека/Информация : UTF-8 Plain Text
Язык : Russian
Default : Нет
Forced : Нет

Текст #2
Идентификатор : 5
Формат : UTF-8
Идентификатор кодека : S_TEXT/UTF8
Идентификатор кодека/Информация : UTF-8 Plain Text
Язык : English
Default : Нет
Forced : Нет
Свернуть
Скриншоты
Изображение
Изображение
Изображение
Изображение
Изображение
Изображение
Свернуть
Не в сети
Профиль  
Начать новую темуОтветить на тему  [ 1 сообщение ] 
Вы не можете начинать темы
Вы не можете отвечать на сообщения
Вы не можете редактировать свои сообщения
Вы не можете удалять свои сообщения