Правила форума

  • В этом разделе создание новых тем Запрещено.
  • Для создания новых тем пользуйтесь Корневым разделом DVD и HD фильмы.
Начать новую темуОтветить на тему  [ 1 сообщение ] 
Торрент файл
Размер: 9.52 GB • Зарегистрирован: 4 года 4 месяца • Статус: Проверено
Скачан: 20 раз • Желающих скачать: 0 • Поблагодарили: 7 раз
 Раздают: 0  |  0 KB/s  ]   Качают: 0  |  0 KB/s  ] 
 Полного источника не было 1 месяц 14 дней 
Сообщения
 Добавлено: 2012-07-27 18:14
Top-releaser
Аватара пользователя
Стаж: 6 лет 7 месяцев
Сообщений: 2078
Спасибок: 3230
Лайков: 9
Изображение

Вокруг света за 80 дней / Around the World in 80 Days


Год выпуска: 2004
Страна: США, Германия, Великобритания, Ирландия
Слоган: «Let your imagination soar.»
Жанр: боевик, мелодрама, комедия, приключения, семейный, вестерн
Продолжительность: 01:54:49
Перевод: Профессиональный (полное дублирование)
Режиссер: Фрэнк Корачи
Сценарий: Дэвид Н. Титчер, Дэвид Бенулло, Дэвид Эндрю Голдстин, Жюль Верн
Продюсер: Филлис Алиа, Алекс Люн, Хэл Либерман, Хеннинг Молфентер, Тьерри Поток
Оператор: Фил Мейхью
Композитор: Тревор Джонс, Дэвид Стюарт
В ролях: Джеки Чан, Стив Куган, Роберт Файф, Джим Броудбент, Иэн МакНис, Дэвид Райалл, Роджер Хэммонд, Адам Годли, Карен Мок, Ховард Купер, Дэниэл Хинчклифф, Wolfram Teufel
Бюджет: $110 000 000
Сборы в мире: $72 178 895
Описание: Эксцентричный лондонский изобретатель Филеас Фогг раскрыл тайны полетов, электричества и многие другие, но общество не принимает его, считая сумасшедшим. Фоггу очень хочется, чтобы к нему относились серьезно, и он заключает необычное пари с лордом Келвином, главой Королевской академии наук: он берется совершить путешествие вокруг земного шара не более чем за 80 дней.
Вместе со своим лакеем Паспарту и жаждущей острых ощущений французской художницей Моник Фогг пускается в безумную, захватывающую кругосветную гонку по суше, морю и воздуху. Во время головокружительного путешествия наши герои попадают в самые экзотические уголки планеты. В пути их ждут многочисленные приключения и препятствия
Изображение
Раздача группы: Изображение
Качество: HDTVRip, 1080i
Формат: Matroska
Видео:AVC; 1920x1088 (16:9); 10739 Kbps; 25 fps; 0,206 bit/pixel
Аудио №1: English; AC3; 448 Kbps; CBR; 6 ch
Аудио №2: Russian; AC3; 448 Kbps; CBR; 6 ch

"Знаете ли Вы, что..."
  • Съемки картины начались 13-го марта 2003 года в Тайланде. В середине апреля съемки переместились в Берлин (студии Babelsberg), где продолжались следующие три месяца до конца июня того же года. Постпродакшн длился вплоть до февраля 2004 года.
Свернуть
MediaInfo
Общее
Уникальный идентификатор : 192094794761755256957871826306783934856 (0x90841C9AF1ACD868A2E654F585867988)
Полное имя : Z:\WWW\TR-Downloads\Around the World in 80 Days 1080i[R.G.Daredevil].mkv
Формат : Matroska
Версия формата : Version 2
Размер файла : 9,52 Гбайт
Продолжительность : 1 ч. 54 м.
Общий поток : 11,9 Мбит/сек
Дата кодирования : UTC 2007-11-04 23:08:17
Программа кодирования : mkvmerge v2.1.0 ('Another Place To Fall') built on Aug 19 2007 13:40:07
Библиотека кодирования : libebml v0.7.7 + libmatroska v0.8.1

Видео
Идентификатор : 1
Формат : AVC
Формат/Информация : Advanced Video Codec
Профиль формата : Main@L4.0
Параметр CABAC формата : Да
Параметр ReFrames формата : 2 кадра
Идентификатор кодека : V_MPEG4/ISO/AVC
Продолжительность : 1 ч. 54 м.
Битрейт : 10,7 Мбит/сек
Ширина : 1920 пикселей
Высота : 1088 пикселей
Соотношение сторон : 16:9
Соотношение сторон в оригинале : 16:9
Частота кадров : 25,000 кадров/сек
Цветовое пространство : YUV
Субдискретизация насыщенности : 4:2:0
Битовая глубина : 8 бит
Тип развёртки : Прогрессивная
Бит/(Пиксели*Кадры) : 0.206
Размер потока : 8,61 Гбайт (90%)
Заголовок : Вокруг Света за 80 дней
Язык : Russian
Default : Да
Forced : Нет
Основные цвета : BT.709-5, BT.1361, IEC 61966-2-4, SMPTE RP177
Характеристики трансфера : BT.709-5, BT.1361
Коэффициенты матрицы : BT.709-5, BT.1361, IEC 61966-2-4 709, SMPTE RP177

Аудио #1
Идентификатор : 3
Формат : AC-3
Формат/Информация : Audio Coding 3
Расширение режима : CM (complete main)
Параметр Endianness формата : Big
Идентификатор кодека : A_AC3
Продолжительность : 1 ч. 54 м.
Вид битрейта : Постоянный
Битрейт : 448 Кбит/сек
Каналы : 6 каналов
Расположение каналов : Front: L C R, Side: L R, LFE
Частота : 48,0 КГц
Битовая глубина : 16 бит
Метод сжатия : С потерями
Размер потока : 368 Мбайт (4%)
Заголовок : Around the World in 80 Days
Язык : English
Default : Нет
Forced : Нет

Аудио #2
Идентификатор : 4
Формат : AC-3
Формат/Информация : Audio Coding 3
Расширение режима : CM (complete main)
Параметр Endianness формата : Big
Идентификатор кодека : A_AC3
Продолжительность : 1 ч. 54 м.
Вид битрейта : Постоянный
Битрейт : 448 Кбит/сек
Каналы : 6 каналов
Расположение каналов : Front: L C R, Side: L R, LFE
Частота : 48,0 КГц
Битовая глубина : 16 бит
Метод сжатия : С потерями
Размер потока : 368 Мбайт (4%)
Заголовок : Вокруг Света за 80 дней
Язык : Russian
Default : Да
Forced : Нет
Свернуть
Скриншоты
Изображение
Изображение
Изображение
Изображение
Изображение
Свернуть
Не в сети
Профиль  
Начать новую темуОтветить на тему  [ 1 сообщение ] 
Вы не можете начинать темы
Вы не можете отвечать на сообщения
Вы не можете редактировать свои сообщения
Вы не можете удалять свои сообщения