Правила форума

  • В этом разделе создание новых тем Запрещено.
  • Для создания новых тем пользуйтесь Корневым разделом DVD и HD фильмы.
Начать новую темуОтветить на тему  [ Сообщений: 16 ] 
Торрент файл
Размер: 19.36 GB • Зарегистрирован: 2 года • Статус: Проверено
Скачан: 651 раз • Желающих скачать: 0 • Поблагодарили: 179 раз
 Раздают: 1  |  0 KB/s  ]   Качают: 0  |  0 KB/s  ] 
Сообщения
 Добавлено: 2014-04-01 12:31
DVD Release Group
Аватара пользователя
Стаж: 7 лет 1 месяц
Сообщений: 3569
Спасибок: 247801
Лайков: 1020
Волк с Уолл-стрит

The Wolf of Wall Street


Изображение


Год выпуска: 2013
Страна: США
Жанр: Драма, комедия, криминал, биография
Продолжительность: 02:59:49
Перевод:
*Профессиональный (полное дублирование)
*Авторский одноголосый
Субтитры: Русские, английские
Режиссер: Мартин Скорсезе
В ролях: Леонардо ДиКаприо, Джона Хилл, Марго Робби, Мэттью МакКонахи, Кайл Чандлер, Роб Райнер, Джон Фавро, Жан Дюжарден, Ши Уигхэм, Спайк Джонс
Описание: Джордан Белфорт основал одну из крупнейших брокерских контор в 1987 году, но десять лет спустя был осужден за отмывание денег и ряд прочих финансовых преступлений. Он справился с алкогольной и наркотической зависимостью, выработанной за время махинаций на Уолл-стрит, написал две книги и теперь читает лекции о том, как достичь успеха.
Изображение Изображение
Качество: BDRip 1080p
Формат: MKV
Видео кодек: H.264
Аудио кодек: AC3, DTS
Видео: 1920x800 23.98fps 7450кбит/с
Аудио:
Аудио Rus: DTS 48kHz 6ch 1510kbps
Аудио Rus: AC3 48kHz 6ch 640kbps
Аудио Eng: DTS 48kHz 6ch 1510kbps
"MediaInfo"
Формат : Matroska
Версия формата : Version 2
Размер файла : 19,4 Гбайт
Продолжительность : 2 ч. 59 м.
Общий поток : 15,4 Мбит/сек
Название фильма : Волк с Уолл-стрит.2013.Rip by: ollan
Дата кодирования : UTC 2014-12-05 08:02:31
Программа кодирования : mkvmerge v5.6.0 ('Kenya Kane') built on May 27 2012 16:44:04
Библиотека кодирования : libebml v1.2.3 + libmatroska v1.3.0

Видео
Идентификатор : 1
Формат : AVC
Формат/Информация : Advanced Video Codec
Профиль формата : High@L4.1
Параметр CABAC формата : Да
Параметр ReFrames формата : 5 кадров
Идентификатор кодека : V_MPEG4/ISO/AVC
Продолжительность : 2 ч. 59 м.
Битрейт : 7450 Кбит/сек
Ширина : 1920 пикселей
Высота : 800 пикселей
Соотношение сторон : 2,40:1
Режим частоты кадров : Постоянный
Частота кадров : 23,976 кадра/сек
Цветовое пространство : YUV
Субдискретизация насыщенности : 4:2:0
Битовая глубина : 8 бит
Тип развёртки : Прогрессивная
Бит/(Пиксели*Кадры) : 0.202
Размер потока : 8,98 Гбайт (46%)
Библиотека кодирования : x264 core 125 r2200 999b753
Настройки программы : cabac=1 / ref=5 / deblock=1:-3:-3 / analyse=0x3:0x133 / me=umh / subme=11 / psy=1 / psy_rd=1.00:0.10 / mixed_ref=1 / me_range=32 / chroma_me=1 / trellis=2 / 8x8dct=1 / cqm=0 / deadzone=21,11 / fast_pskip=0 / chroma_qp_offset=-3 / threads=12 / lookahead_threads=2 / sliced_threads=0 / nr=0 / decimate=0 / interlaced=0 / bluray_compat=0 / constrained_intra=0 / bframes=9 / b_pyramid=2 / b_adapt=2 / b_bias=0 / direct=3 / weightb=1 / open_gop=0 / weightp=2 / keyint=240 / keyint_min=23 / scenecut=40 / intra_refresh=0 / rc_lookahead=40 / rc=2pass / mbtree=1 / bitrate=7450 / ratetol=1.0 / qcomp=0.60 / qpmin=0 / qpmax=69 / qpstep=4 / cplxblur=20.0 / qblur=0.5 / ip_ratio=1.40 / aq=1:1.00
Default : Да
Forced : Нет

Аудио #1
Идентификатор : 2
Формат : AC-3
Формат/Информация : Audio Coding 3
Расширение режима : CM (complete main)
Параметр Endianness формата : Big
Идентификатор кодека : A_AC3
Продолжительность : 2 ч. 59 м.
Вид битрейта : Постоянный
Битрейт : 640 Кбит/сек
Каналы : 6 каналов
Расположение каналов : Front: L C R, Side: L R, LFE
Частота : 48,0 КГц
Битовая глубина : 16 бит
Метод сжатия : С потерями
Размер потока : 823 Мбайт (4%)
Заголовок : Дублированный (BD Rus)
Язык : Russian
Default : Да
Forced : Нет

Аудио #2
Идентификатор : 3
Формат : AC-3
Формат/Информация : Audio Coding 3
Расширение режима : CM (complete main)
Параметр Endianness формата : Big
Идентификатор кодека : A_AC3
Продолжительность : 2 ч. 59 м.
Вид битрейта : Постоянный
Битрейт : 640 Кбит/сек
Каналы : 6 каналов
Расположение каналов : Front: L C R, Side: L R, LFE
Частота : 48,0 КГц
Битовая глубина : 16 бит
Метод сжатия : С потерями
Размер потока : 823 Мбайт (4%)
Заголовок : Авторский одноголосый (С.Визгунов)
Язык : Russian
Default : Нет
Forced : Нет

Аудио #3
Идентификатор : 4
Формат : AC-3
Формат/Информация : Audio Coding 3
Расширение режима : CM (complete main)
Параметр Endianness формата : Big
Идентификатор кодека : A_AC3
Продолжительность : 2 ч. 59 м.
Вид битрейта : Постоянный
Битрейт : 640 Кбит/сек
Каналы : 6 каналов
Расположение каналов : Front: L C R, Side: L R, LFE
Частота : 48,0 КГц
Битовая глубина : 16 бит
Метод сжатия : С потерями
Размер потока : 823 Мбайт (4%)
Заголовок : Авторский одноголосый (Ю.Немахов)
Язык : Russian
Default : Нет
Forced : Нет

Аудио #4
Идентификатор : 5
Формат : DTS
Формат/Информация : Digital Theater Systems
Режим : 16
Параметр Endianness формата : Big
Идентификатор кодека : A_DTS
Продолжительность : 2 ч. 59 м.
Вид битрейта : Постоянный
Битрейт : 1509 Кбит/сек
Каналы : 6 каналов
Расположение каналов : Front: L C R, Side: L R, LFE
Частота : 48,0 КГц
Битовая глубина : 16 бит
Метод сжатия : С потерями
Размер потока : 1,90 Гбайт (10%)
Заголовок : Дублированный (BD Rus)
Язык : Russian
Default : Нет
Forced : Нет

Аудио #5
Идентификатор : 6
Формат : DTS
Формат/Информация : Digital Theater Systems
Режим : 16
Параметр Endianness формата : Big
Идентификатор кодека : A_DTS
Продолжительность : 2 ч. 59 м.
Вид битрейта : Постоянный
Битрейт : 1509 Кбит/сек
Каналы : 6 каналов
Расположение каналов : Front: L C R, Side: L R, LFE
Частота : 48,0 КГц
Битовая глубина : 24 бит
Метод сжатия : С потерями
Размер потока : 1,90 Гбайт (10%)
Заголовок : Авторский одноголосый (С.Визгунов)
Язык : Russian
Default : Нет
Forced : Нет

Аудио #6
Идентификатор : 7
Формат : DTS
Формат/Информация : Digital Theater Systems
Режим : 16
Параметр Endianness формата : Big
Идентификатор кодека : A_DTS
Продолжительность : 2 ч. 59 м.
Вид битрейта : Постоянный
Битрейт : 1509 Кбит/сек
Каналы : 6 каналов
Расположение каналов : Front: L C R, Side: L R, LFE
Частота : 48,0 КГц
Битовая глубина : 24 бит
Метод сжатия : С потерями
Размер потока : 1,90 Гбайт (10%)
Заголовок : Авторский одноголосый (Ю.Немахов)
Язык : Russian
Default : Нет
Forced : Нет

Аудио #7
Идентификатор : 8
Формат : DTS
Формат/Информация : Digital Theater Systems
Режим : 16
Параметр Endianness формата : Big
Идентификатор кодека : A_DTS
Продолжительность : 2 ч. 59 м.
Вид битрейта : Постоянный
Битрейт : 1509 Кбит/сек
Каналы : 6 каналов
Расположение каналов : Front: L C R, Side: L R, LFE
Частота : 48,0 КГц
Битовая глубина : 24 бит
Метод сжатия : С потерями
Размер потока : 1,90 Гбайт (10%)
Язык : English
Default : Нет
Forced : Нет

Текст #1
Идентификатор : 9
Формат : UTF-8
Идентификатор кодека : S_TEXT/UTF8
Идентификатор кодека/Информация : UTF-8 Plain Text
Заголовок : Full
Язык : Russian
Default : Нет
Forced : Нет

Текст #2
Идентификатор : 10
Формат : UTF-8
Идентификатор кодека : S_TEXT/UTF8
Идентификатор кодека/Информация : UTF-8 Plain Text
Заголовок : Full
Язык : English
Default : Нет
Forced : Нет

Меню
00:00:00.000 : :Chapter 01
00:07:55.932 : :Chapter 02
00:14:17.855 : :Chapter 03
00:21:31.414 : :Chapter 04
00:32:08.092 : :Chapter 05
00:40:14.493 : :Chapter 06
00:48:33.577 : :Chapter 07
00:55:21.774 : :Chapter 08
01:01:56.045 : :Chapter 09
01:07:00.474 : :Chapter 10
01:11:28.908 : :Chapter 11
01:19:49.868 : :Chapter 12
01:29:06.881 : :Chapter 13
01:37:47.403 : :Chapter 14
01:45:11.930 : :Chapter 15
01:54:39.997 : :Chapter 16
02:03:20.184 : :Chapter 17
02:07:28.015 : :Chapter 18
02:17:12.849 : :Chapter 19
02:25:25.466 : :Chapter 20
02:32:08.619 : :Chapter 21
02:36:38.721 : :Chapter 22
02:44:19.265 : :Chapter 23
02:53:04.290 : :Chapter 24
02:59:52.156 : :Chapter 25
Свернуть

"Скриншоты"
Изображение
Изображение
Изображение
Изображение
Изображение
Изображение
Свернуть


Последний раз редактировалось rastor 2014-12-05 11:40, всего редактировалось 2 раз(а).
 frank sinatra нравится это.
Не в сети
Профиль  
 Добавлено: 2014-04-01 19:29 (спустя 6 часов)
Аватара пользователя
Стаж: 7 лет 2 месяца
Сообщений: 10
Спасибок: 26
Блин, наконец то - дождался :ya_hoo_oo:
Не в сети
Профиль  
 Добавлено: 2014-04-01 22:05 (спустя 2 часа 36 минут)
Стаж: 6 лет 10 месяцев
Сообщений: 21
урааааааа!!!!!!!!!!!!!!!!!!!!!!!
Не в сети
Профиль  
 Добавлено: 2014-04-02 09:00 (спустя 10 часов)
Аватара пользователя
Стаж: 4 года 10 месяцев
Возраст: 29
Сообщений: 86
Лайков: 1
не знаю что и сказать то про фильм.Много темы про наркотики,я думаю , что это не должно показывать по телику.как бы Нам не хотели представить их с любой стороны. Но с нюхать кокс с очка ТЁЛКИ это норм прикол. ДИКАПРИЧ4 ХОРОШ в игре а Мартин Вообще памятник при жизни за такой дар!
Не в сети
Профиль  
 Добавлено: 2014-04-05 08:57 (спустя 2 дня 23 часа)
Аватара пользователя
Стаж: 8 лет 1 месяц
Возраст: 31
Сообщений: 46
Спасибок: 1
и че вы тут выложили за ШЛЯПУ. где звук нормальный? полный дубляж в 2.0 двухголосый тоже шляпа со звуком. а 3 шляпный
Не в сети
Профиль  
 Добавлено: 2014-04-05 09:04 (спустя 7 минут)
DVD Release Group
Аватара пользователя
Стаж: 7 лет 1 месяц
Сообщений: 3569
Спасибок: 247801
Лайков: 1020

сергей ка:

и че вы тут выложили за ШЛЯПУ. где звук нормальный? полный дубляж в 2.0 двухголосый тоже шляпа со звуком. а 3 шляпный
В бутике головных уборов работаете? В чем причина претензии конкретно?
Не в сети
Профиль  
 Добавлено: 2014-04-05 09:08 (спустя 3 минуты)
Аватара пользователя
Стаж: 8 лет 1 месяц
Возраст: 31
Сообщений: 46
Спасибок: 1
вопрос че со звуком? где нормальный дубляж? полный дубляж в стерео. я опечатался. второй звук так же не идет на 5.1
Не в сети
Профиль  
 Добавлено: 2014-04-05 09:13 (спустя 5 минут)
DVD Release Group
Аватара пользователя
Стаж: 7 лет 1 месяц
Сообщений: 3569
Спасибок: 247801
Лайков: 1020
сергей ка
До выхода лицензии лучше этого вы не найдете нигде. Для определения качества присутствует sample.
Не в сети
Профиль  
 Добавлено: 2014-04-06 09:08 (спустя 23 часа)
Стаж: 9 лет 1 месяц
Сообщений: 94
пифагор - это тот что был в прокате?
Не в сети
Профиль  
 Добавлено: 2014-04-06 11:44 (спустя 2 часа 35 минут)
Top-seeder
Аватара пользователя
Стаж: 8 лет 3 месяца
Сообщений: 714
Спасибок: 103
Лайков: 13
неплохой фильм,интересно смотреть .мне кажется даже шоу герлз небыло столько обнаженных женских тел
в общем тема сисек раскрыта :co_ol:
8 из 10 :)
качество картинки и звука нормальное.

что то Ди каприо в этом фильме какой то исхудавший. как будто после болезни.
Не в сети
Профиль  
 Добавлено: 2014-04-06 23:46 (спустя 12 часов)
Стаж: 9 лет
Сообщений: 312
Спасибок: 347
Лайков: 9
C пропагандой наркоты перебор
Не в сети
Профиль  
 Добавлено: 2014-04-19 20:59 (спустя 12 дней)
Аватара пользователя
Стаж: 6 лет 10 месяцев
Сообщений: 61
когда лицензия? :ny_tik: охота глянуть...
Не в сети
Профиль  
 Добавлено: 2014-07-01 00:14 (спустя 2 месяца 11 дней)
Стаж: 7 лет 11 месяцев
Сообщений: 20
никто с очка не нюхал кокс, он наоборот ей в прямую кишку его вгонял, там тоже слизистая если что =)
Не в сети
Профиль  
 Добавлено: 2014-12-05 11:33 (спустя 5 месяцев 4 дня)
DVD Release Group
Аватара пользователя
Стаж: 7 лет 1 месяц
Сообщений: 3569
Спасибок: 247801
Лайков: 1020
Торрент-файл обновлен на лицензию.
Не в сети
Профиль  
 Добавлено: 2014-12-06 23:58 (спустя 1 день 12 часов)
Аватара пользователя
Стаж: 2 года 11 месяцев
Возраст: 21
Сообщений: 3
когда лицуха то??
Не в сети
Профиль  
 Добавлено: 2014-12-07 07:57 (спустя 7 часов)
DVD Release Group
Аватара пользователя
Стаж: 7 лет 1 месяц
Сообщений: 3569
Спасибок: 247801
Лайков: 1020
Tamao_Sarizava
В шапке всё вроде написано. :hi_hi_hi:
Не в сети
Профиль  
Начать новую темуОтветить на тему  [ Сообщений: 16 ] 
Вы не можете начинать темы
Вы не можете отвечать на сообщения
Вы не можете редактировать свои сообщения
Вы не можете удалять свои сообщения