Правила форума

  • В этом разделе создание новых тем Запрещено.
  • Для создания новых тем пользуйтесь Корневым разделом DVD и HD фильмы.
Начать новую темуОтветить на тему  [ Сообщений: 4 ] 
Торрент файл
Размер: 4.01 GB • Зарегистрирован: 3 года 3 месяца • Статус: T Временный релиз
Скачан: 93 раза • Желающих скачать: 0 • Поблагодарили: 35 раз
 Раздают: 0  |  0 KB/s  ]   Качают: 0  |  0 KB/s  ] 
 Полного источника не было 8 месяцев 
Сообщения
 Добавлено: 2013-08-23 11:51
Top-releaser
Аватара пользователя
Стаж: 8 лет 9 месяцев
Сообщений: 479
Спасибок: 20190
Лайков: 16
Изображение

Воскрешение

A Resurrection


«Он придёт за тобой»

Год выпуска: 2012
Страна: США; Jamie Kennedy Entertainment, Levine Pictures
Жанр: Триллер
Продолжительность: 01:30:20
Перевод: Профессиональный (дублированный) [Чистый звук], Оригинал

Режиссёр: Мэтт Орландо / Matt Orlando

В ролях: Миша Бартон, Девон Сава, Майкл Кларк Дункан, Джонатан Майкл Траутмэнн, Николас Джендл, Стюарт Стоун, Аланна Романски, Морган Волк, Энни Китрал, Патрик Де Ледебур, Мэттью Уиллиг, Бренден М. Смит

Описание: История о подростке, который похоронил своего родного брата, но не хочет признать и поверить в это. С ним долгое время работает психолог, который пытается ему это объяснить, но подросток на каждом сеансе отрицает факт смерти. Вскоре полицейские обнаруживают вскрытую могилу, из которой исчезло тело брата. После этого, по мистическому совпадению, подросток начинает видеть убийства, которые должны совершиться в ближайшее время и рисует их в своих рисунках. Психологи и полиция начинают работать с подростком, но открытие поражает их сознание.


Качество: BDRip 720p
Формат: MKV

Видео: AVC at 4519 Кбит/сек, 1280 x 640 (2.000) at 23.976 fps

Аудио 1: AC-3 at 192 Кбит/сек, 2 канала(ов), 48,0 КГц [Дубляж] - Чистый звук
Аудио 2: DTS at 1510 Кбит/сек, 6 канала(ов), 48,0 КГц [Оригинал]
Раздача: Изображение

Изображение

Изображение
MediaInfo

Общее
Уникальный идентификатор : 182823897588321453622808918121850984178 (0x898A9A158F97BD32AF60288EA065D6F2)
Полное имя : C:\Users\Домашний\Desktop\Voskreshenie.2013.BDRip.720p[nntt].mkv
Формат : Matroska
Размер файла : 4,01 Гбайт
Продолжительность : 1 ч. 30 м.
Общий поток : 6347 Кбит/сек
Дата кодирования : UTC 2013-08-22 18:24:38
Программа кодирования : mkvmerge v5.2.0 ('I can't explain') built on Dec 18 2011 18:12:03
Библиотека кодирования : libebml v1.2.3 + libmatroska v1.3.0

Видео
Идентификатор : 1
Формат : AVC
Формат/Информация : Advanced Video Codec
Профиль формата : High@L4.1
Параметр CABAC формата : Да
Параметр ReFrames формата : 10 кадры
Режим смешивания : Header stripping
Идентификатор кодека : V_MPEG4/ISO/AVC
Продолжительность : 1 ч. 30 м.
Битрейт : 4519 Кбит/сек
Ширина : 1280 пикс.
Высота : 640 пикс.
Соотношение сторон : 2,000
Частота кадров : 23,976 кадр/сек
Цветовое пространство : YUV
Подвыборка цветности : 4:2:0
Битовая глубина : 8 бит
Тип развёртки : Прогрессивная
Бит/(Пиксели*Кадры) : 0.230
Размер потока : 2,85 Гбайт (71%)
Библиотека кодирования : x264 core 133 r2334+704+50 a7549b7 tMod [8-bit@4:2:0 X86_64]
Настройки программы : cabac=1 / ref=10 / deblock=1:-3:-3 / analyse=0x3:0x113 / me=umh / subme=10 / psy=1 / fade_compensate=0.00 / psy_rd=1.05:0.00 / mixed_ref=1 / me_range=32 / chroma_me=1 / trellis=2 / 8x8dct=1 / cqm=0 / deadzone=21,11 / fast_pskip=1 / chroma_qp_offset=-2 / threads=16 / lookahead_threads=2 / sliced_threads=0 / nr=0 / decimate=1 / interlaced=0 / bluray_compat=0 / constrained_intra=0 / fgo=0 / bframes=8 / b_pyramid=2 / b_adapt=2 / b_bias=0 / direct=3 / weightb=1 / open_gop=0 / weightp=2 / keyint=240 / keyint_min=23 / scenecut=40 / intra_refresh=0 / rc_lookahead=50 / rc=crf / mbtree=0 / crf=16.0000 / qcomp=0.70 / qpmin=0 / qpmax=69 / qpstep=4 / vbv_maxrate=50000 / vbv_bufsize=50000 / crf_max=0.0 / nal_hrd=none / ip_ratio=1.40 / pb_ratio=1.30 / aq=4:0.90 / aq-sensitivity=10.00 / aq-factor=1.00:1.00:1.00 / aq2=0 / aq3=0
Язык : English

Аудио #1
Идентификатор : 2
Формат : AC-3
Формат/Информация : Audio Coding 3
Расширение режима : CM (complete main)
Режим смешивания : Header stripping
Идентификатор кодека : A_AC3
Продолжительность : 1 ч. 30 м.
Вид битрейта : Постоянный
Битрейт : 192 Кбит/сек
Канал(ы) : 2 канала(ов)
Расположение каналов : Front: L R
Частота : 48,0 КГц
Битовая глубина : 16 бит
Метод сжатия : С потерями
Размер потока : 124 Мбайт (3%)
Язык : Russian

Аудио #2
Идентификатор : 3
Формат : DTS
Формат/Информация : Digital Theater Systems
Режим смешивания : Header stripping
Идентификатор кодека : A_DTS
Продолжительность : 1 ч. 30 м.
Вид битрейта : Постоянный
Битрейт : 1510 Кбит/сек
Канал(ы) : 6 канала(ов)
Расположение каналов : Front: L C R, Side: L R, LFE
Частота : 48,0 КГц
Битовая глубина : 24 бит
Метод сжатия : С потерями
Размер потока : 976 Мбайт (24%)
Язык : English

Меню
00:00:00.000 : en:00:00:00.000
00:10:54.687 : en:00:10:54.687
00:17:49.402 : en:00:17:49.402
00:30:40.005 : en:00:30:40.005
00:38:10.622 : en:00:38:10.622
00:50:19.049 : en:00:50:19.049
00:56:35.359 : en:00:56:35.359
01:05:12.142 : en:01:05:12.142
01:12:29.946 : en:01:12:29.946
01:22:42.024 : en:01:22:42.024


Свернуть
Скриншоты

Изображение
Изображение
Изображение
Изображение
Изображение
Свернуть
_________________
Изображение
Изображение
Не в сети
Профиль  
 Добавлено: 2013-08-23 13:13 (спустя 1 час 22 минуты)
Аватара пользователя
Стаж: 8 лет 7 месяцев
Сообщений: 672
Спасибок: 84
Лайков: 84
на 4ом скрине -Юра Шатунов
Не в сети
Профиль  
 Добавлено: 2013-08-24 16:18 (спустя 1 день 3 часа)
Аватара пользователя
Стаж: 8 лет 8 месяцев
Сообщений: 1704
Спасибок: 104
Лайков: 152

natangell:

на 4ом скрине -Юра Шатунов
:-D с похмелья :ps_ih:
Не в сети
Профиль  
 Добавлено: 2013-08-29 18:05 (спустя 5 дней)
Стаж: 4 года 4 месяца
Сообщений: 4
Лайков: 1
четко!!! молодец
Не в сети
Профиль  
Начать новую темуОтветить на тему  [ Сообщений: 4 ] 
Вы не можете начинать темы
Вы не можете отвечать на сообщения
Вы не можете редактировать свои сообщения
Вы не можете удалять свои сообщения