Правила форума

  • В этом разделе создание новых тем Запрещено.
  • Для создания новых тем пользуйтесь Корневым разделом DVD и HD фильмы.
Начать новую темуОтветить на тему  [ 1 сообщение ] 
Торрент файл
Размер: 6.79 GB • Зарегистрирован: 5 лет • Статус: Проверено
Скачан: 92 раза • Желающих скачать: 0 • Поблагодарили: 19 раз
 Раздают: 1  |  0 KB/s  ]   Качают: 0  |  0 KB/s  ] 
Сообщения
 Добавлено: 2011-12-04 20:09
Руководитель релиз-группы
Аватара пользователя
Стаж: 8 лет 6 месяцев
Возраст: 25
Сообщений: 7578
Спасибок: 51910
Лайков: 14
Восстание планеты обезьян / Rise of the Planet of the Apes

Изображение

Год выпуска: 2011
Страна: США
Слоган: «Evolution Becomes Revolution»

Жанр: фантастика, боевик, триллер, драма
Продолжительность: 01:44:56
Перевод: Профессиональный (полное дублирование)

Режиссер: Руперт Уайатт
Сценарий: Рик Джаффа, Аманда Сильвер, Пьер Буль
Продюсер: Дилан Кларк, Рик Джаффа, Аманда Сильвер, Томас М. Хэммел, Курт Уильямс
Оператор: Эндрю Лесни
Композитор: Патрик Дойл

В ролях: Джеймс Франко, Джон Литгоу, Фрида Пинто, Тайлер Лэбин, Брайан Кокс, Том Фелтон, Дэвид Ойелоуо, Джэми Харрис, Дэвид Хьюлетт, Ти Олссон, Мэдисон Белл, Макена Джой
Дублёры: Алексей Чадов, Виктор Костецкий, Наталья Виноградова, Алексей Макрецкий, Сергей Дьячков, Александр Лушин, Артем Веселов, Вадим Романов

Описание: Молодой ученый испытывает на обезьянах новое лекарство от болезни Альцгеймера. У препарата обнаруживается удивительный побочный эффект: он повышает в несколько раз интеллект приматов.
Релиз: Изображение

Качество: BDRip 720p R5
Формат: MKV
Видео: 1280x544 (2.35:1), H.264, 23.976 fps, 7301 kb/s, 0.274 bit/pixel
Аудио: Russian: AC3, 448 kbs (6 ch) 48 kHz / English: DTS, 1510 kb/s (6 ch) 48 kHz
"Знаете ли Вы, что..."
  • Шимпанзе Цезаря (зачинщика обезьяньего бунта) изобразил Энди Серкис, ранее подаривший пластику и мимику Голлуму и Кинг Конгу.
  • «Восстание…» – первый фильм «обезьяньей» франшизы, в котором четверорукие приматы представляют собой CG-модели. В римейке «Планеты обезьян» Тима Бертона обезьян играли актеры в сложном гриме.
  • У картины было три рабочих названия: «Цезарь» (Caesar), «Цезарь: Восстание обезьян» (Caesar: Rise of the Apes) и «Восстание обезьян» (Rise of the Apes). Окончательным названием – «Восстание планеты обезьян» (Rise of the Planet of the Apes) создатели фильма решили подчеркнуть связь с франшизой «Планета обезьян» (Planet of the Apes).
  • Цезарь использует связку палок, чтобы объяснить Морису, как одна обезьяна слаба, а обезьяны вместе - сильны. Так же связка палок, или Фа́сции, была символом власти в древнем Риме, происхождении имени Цезаря. Образ Цезаря также напоминает о Бенито Муссолини, который принял Фа́сции как символ его итальянской Фашистской стороны.
  • На роль Уилла, которого сыграл Джеймс Франко, рассматривался также Тоби Магуайр.
Свернуть
"MediaInfo"
H:\Vosstanie.planety.obezyan.2011.D.BDRip.720p.UNIONGANG.mkv
   General
      Complete name : H:\Vosstanie.planety.obezyan.2011.D.BDRip.720p.UNIONGANG.mkv
      Format : Matroska
      File size : 6.79 GiB
      Duration : 1h 44mn
      Overall bit rate : 9 257 Kbps
      Movie name : Rise.of.the.Planet.of.the.Apes.2011.720p.BluRay.DTS.x264-HiDt-UNIONGANG
      Encoded date : UTC 2011-12-04 14:23:59
      Writing application : mkvmerge v5.0.1 ('Es ist Sommer') built on Oct  9 2011 11:55:43
      Writing library : libebml v1.2.2 + libmatroska v1.3.0
   Video #1
      ID : 1
      Format : AVC
      Format/Info : Advanced Video Codec
      Format profile : High@L4.1
      Format settings, CABAC : Yes
      Format settings, ReFrames : 12 frames
      Muxing mode : Container profile=Unknown@4.1
      Codec ID : V_MPEG4/ISO/AVC
      Duration : 1h 44mn
      Bit rate : 7 115 Kbps
      Nominal bit rate : 7 301 Kbps
      Width : 1 280 pixels
      Height : 544 pixels
      Display aspect ratio : 2.35:1
      Frame rate : 23.976 fps
      Resolution : 24 bits
      Colorimetry : 4:2:0
      Scan type : Progressive
      Bits/(Pixel*Frame) : 0.426
      Stream size : 5.21 GiB (77%)
      Title : Rise.of.the.Planet.of.the.Apes.2011.720p.BluRay.DTS.x264-HiDt
      Writing library : x264 core 119 r2106 07efeb4
      Encoding settings : cabac=1 / ref=12 / deblock=1:-3:-3 / analyse=0x3:0x113 / me=tesa / subme=11 / psy=1 / psy_rd=1.02:0.04 / mixed_ref=1 / me_range=32 / chroma_me=1 / trellis=2 / 8x8dct=1 / cqm=0 / deadzone=21,11 / fast_pskip=0 / chroma_qp_offset=-3 / threads=12 / sliced_threads=0 / nr=0 / decimate=1 / interlaced=0 / bluray_compat=0 / constrained_intra=0 / bframes=6 / b_pyramid=2 / b_adapt=2 / b_bias=0 / direct=3 / weightb=1 / open_gop=0 / weightp=2 / keyint=250 / keyint_min=23 / scenecut=40 / intra_refresh=0 / rc_lookahead=80 / rc=2pass / mbtree=1 / bitrate=7301 / ratetol=1.0 / qcomp=0.55 / qpmin=0 / qpmax=69 / qpstep=4 / cplxblur=20.0 / qblur=0.5 / vbv_maxrate=45000 / vbv_bufsize=40000 / nal_hrd=none / ip_ratio=1.40 / aq=2:0.80
   Audio #2
      ID : 2
      Format : AC-3
      Format/Info : Audio Coding 3
      Codec ID : A_AC3
      Duration : 1h 44mn
      Bit rate mode : Constant
      Bit rate : 448 Kbps
      Channel(s) : 6 channels
      Channel positions : Front: L C R, Surround: L R, LFE
      Sampling rate : 48.0 KHz
      Stream size : 336 MiB (5%)
      Title : DD @ 448 kbs 5.1
      Language : Russian
   Audio #3
      ID : 3
      Format : DTS
      Format/Info : Digital Theater Systems
      Codec ID : A_DTS
      Duration : 1h 44mn
      Bit rate mode : Constant
      Bit rate : 1 510 Kbps
      Channel(s) : 6 channels
      Channel positions : Front: L C R, Surround: L R, LFE
      Sampling rate : 48.0 KHz
      Resolution : 24 bits
      Stream size : 1.11 GiB (16%)
      Title : DTS @ 1510 kbs 5.1
   Text #4
      ID : 4
      Format : UTF-8
      Codec ID : S_TEXT/UTF8
      Codec ID/Info : UTF-8 Plain Text
      Title : Forced
      Language : Russian
   Text #5
      ID : 5
      Format : UTF-8
      Codec ID : S_TEXT/UTF8
      Codec ID/Info : UTF-8 Plain Text
      Title : Full
      Language : Russian
   Text #6
      ID : 6
      Format : UTF-8
      Codec ID : S_TEXT/UTF8
      Codec ID/Info : UTF-8 Plain Text
      Title : Forced
   Text #7
      ID : 7
      Format : UTF-8
      Codec ID : S_TEXT/UTF8
      Codec ID/Info : UTF-8 Plain Text
      Title : Full
Свернуть
"Скриншоты"

Изображение
Изображение
Изображение
Свернуть
Не в сети
Профиль  
Начать новую темуОтветить на тему  [ 1 сообщение ] 
Вы не можете начинать темы
Вы не можете отвечать на сообщения
Вы не можете редактировать свои сообщения
Вы не можете удалять свои сообщения