Правила форума

  • В этом разделе создание новых тем Запрещено.
  • Для создания новых тем пользуйтесь Корневым разделом DVD и HD фильмы.
Начать новую темуОтветить на тему  [ Сообщений: 8 ] 
Торрент файл
Размер: 13.1 GB • Зарегистрирован: 4 года 11 месяцев • Статус: Проверено
Скачан: 334 раза • Желающих скачать: 0 • Поблагодарили: 103 раза
 Раздают: 0  |  0 KB/s  ]   Качают: 0  |  0 KB/s  ] 
 Полного источника не было 4 дня 
Сообщения
 Добавлено: 2011-12-04 20:37
Руководитель релиз-группы
Аватара пользователя
Стаж: 8 лет 6 месяцев
Возраст: 25
Сообщений: 7578
Спасибок: 51910
Лайков: 14
Восстание планеты обезьян / Rise of the Planet of the Apes

Изображение

Год выпуска: 2011
Страна: США
Слоган: «Evolution Becomes Revolution»

Жанр: фантастика, боевик, триллер, драма
Продолжительность: 01:44:56
Перевод: Профессиональный (полное дублирование)

Режиссер: Руперт Уайатт
Сценарий: Рик Джаффа, Аманда Сильвер, Пьер Буль
Продюсер: Дилан Кларк, Рик Джаффа, Аманда Сильвер, Томас М. Хэммел, Курт Уильямс
Оператор: Эндрю Лесни
Композитор: Патрик Дойл

В ролях: Джеймс Франко, Джон Литгоу, Фрида Пинто, Тайлер Лэбин, Брайан Кокс, Том Фелтон, Дэвид Ойелоуо, Джэми Харрис, Дэвид Хьюлетт, Ти Олссон, Мэдисон Белл, Макена Джой
Дублёры: Алексей Чадов, Виктор Костецкий, Наталья Виноградова, Алексей Макрецкий, Сергей Дьячков, Александр Лушин, Артем Веселов, Вадим Романов

Описание: Молодой ученый испытывает на обезьянах новое лекарство от болезни Альцгеймера. У препарата обнаруживается удивительный побочный эффект: он повышает в несколько раз интеллект приматов.
Релиз: Изображение

Качество: BDRip 1080p R5
Формат: MKV
Видео: 1920x816 (2.35:1), H.264, 23.976 fps, 15,9 mb/s, 0.424 bit/pixel
Аудио: Russian: AC3, 448 kbs (6 ch) 48 kHz / English: DTS, 1510 kb/s (6 ch) 48 kHz
"Знаете ли Вы, что..."
  • Шимпанзе Цезаря (зачинщика обезьяньего бунта) изобразил Энди Серкис, ранее подаривший пластику и мимику Голлуму и Кинг Конгу.
  • «Восстание…» – первый фильм «обезьяньей» франшизы, в котором четверорукие приматы представляют собой CG-модели. В римейке «Планеты обезьян» Тима Бертона обезьян играли актеры в сложном гриме.
  • У картины было три рабочих названия: «Цезарь» (Caesar), «Цезарь: Восстание обезьян» (Caesar: Rise of the Apes) и «Восстание обезьян» (Rise of the Apes). Окончательным названием – «Восстание планеты обезьян» (Rise of the Planet of the Apes) создатели фильма решили подчеркнуть связь с франшизой «Планета обезьян» (Planet of the Apes).
  • Цезарь использует связку палок, чтобы объяснить Морису, как одна обезьяна слаба, а обезьяны вместе - сильны. Так же связка палок, или Фа́сции, была символом власти в древнем Риме, происхождении имени Цезаря. Образ Цезаря также напоминает о Бенито Муссолини, который принял Фа́сции как символ его итальянской Фашистской стороны.
  • На роль Уилла, которого сыграл Джеймс Франко, рассматривался также Тоби Магуайр.
Свернуть
"MediaInfo"
Общее

Полное имя                       : Rise of the Planet of the Apes (2011) BDRip 1080p .mkv
Формат                           : Matroska
Версия формата                   : Version 2
Размер файла                     : 13,1 Гбайт
Продолжительность                : 1 ч. 44 м.
Общий поток                      : 17,9 Мбит/сек
Название фильма                  : Rise of the Planet of the Apes (2011) BDRip 1080p .Uniongang.tv
Дата кодирования                 : UTC 2011-12-04 15:03:06
Программа кодирования            : mkvmerge v5.0.0 ('Die Wahre Liebe') built on Sep 25 2011 20:33:49
Библиотека кодирования           : libebml v1.2.2 + libmatroska v1.3.0

Видео
Идентификатор                    : 1
Формат                           : AVC
Формат/Информация                : Advanced Video Codec
Профиль формата                  : High@L4.1
Параметр CABAC формата           : Да
Параметр ReFrames формата        : 5 кадров
Идентификатор кодека             : V_MPEG4/ISO/AVC
Продолжительность                : 1 ч. 44 м.
Битрейт                          : 15,9 Мбит/сек
Ширина                           : 1920 пикс.
Высота                           : 816 пикс.
Соотношение сторон               : 2,35:1
Частота кадров                   : 23,976 кадр/сек
Цветовое пространство            : YUV
Подвыборка цветности             : 4:2:0
Битовая глубина                  : 8 бит
Тип развёртки                    : Прогрессивная
Бит/(Пиксели*Кадры)              : 0.424
Размер потока                    : 11,4 Гбайт (87%)
Заголовок                        : Rise of the Planet of the Apes (2011) BDRip 1080p .Uniongang.tv
Библиотека кодирования           : x264 core 116 r2074 2641b9e
Настройки программы              : cabac=1 / ref=5 / deblock=1:-3:-3 / analyse=0x3:0x133 / me=umh / subme=10 / psy=1 / psy_rd=1.00:0.00 / mixed_ref=1 / me_range=48 / chroma_me=1 / trellis=2 / 8x8dct=1 / cqm=0 / deadzone=21,11 / fast_pskip=1 / chroma_qp_offset=-2 / threads=12 / sliced_threads=0 / nr=0 / decimate=0 / interlaced=0 / bluray_compat=0 / constrained_intra=0 / bframes=8 / b_pyramid=2 / b_adapt=2 / b_bias=0 / direct=3 / weightb=1 / open_gop=0 / weightp=2 / keyint=250 / keyint_min=23 / scenecut=40 / intra_refresh=0 / rc_lookahead=60 / rc=2pass / mbtree=1 / bitrate=15939 / ratetol=1.0 / qcomp=0.60 / qpmin=0 / qpmax=69 / qpstep=4 / cplxblur=20.0 / qblur=0.5 / vbv_maxrate=50000 / vbv_bufsize=50000 / nal_hrd=none / ip_ratio=1.50 / aq=1:1.00
Язык                             : English

Аудио #1
Идентификатор                    : 2
Формат                           : AC-3
Формат/Информация                : Audio Coding 3
Расширение режима                : CM (complete main)
Идентификатор кодека             : A_AC3
Продолжительность                : 1 ч. 44 м.
Вид битрейта                     : Постоянный
Битрейт                          : 448 Кбит/сек
Каналы                           : 6 каналов
Расположение каналов             : Front: L C R, Side: L R, LFE
Частота                          : 48,0 КГц
Битовая глубина                  : 16 бит
Метод сжатия                     : С потерями
Размер потока                    : 336 Мбайт (3%)
Язык                             : Russian

Аудио #2
Идентификатор                    : 3
Формат                           : DTS
Формат/Информация                : Digital Theater Systems
Идентификатор кодека             : A_DTS
Продолжительность                : 1 ч. 44 м.
Вид битрейта                     : Постоянный
Битрейт                          : 1510 Кбит/сек
Каналы                           : 6 каналов
Расположение каналов             : Front: L C R, Side: L R, LFE
Частота                          : 48,0 КГц
Битовая глубина                  : 24 бит
Метод сжатия                     : С потерями
Задержка видео                   : 11 мс.
Размер потока                    : 1,11 Гбайт (8%)
Язык                             : English

Текст #1
Идентификатор                    : 4
Формат                           : UTF-8
Идентификатор кодека             : S_TEXT/UTF8
Идентификатор кодека/Информация  : UTF-8 Plain Text
Заголовок                        : Full
Язык                             : Russian

Текст #2
Идентификатор                    : 5
Формат                           : UTF-8
Идентификатор кодека             : S_TEXT/UTF8
Идентификатор кодека/Информация  : UTF-8 Plain Text
Заголовок                        : Forced
Язык                             : Russian

Текст #3
Идентификатор                    : 6
Формат                           : UTF-8
Идентификатор кодека             : S_TEXT/UTF8
Идентификатор кодека/Информация  : UTF-8 Plain Text
Язык                             : English
Свернуть
"Скриншоты"

Изображение
Изображение
Изображение
Свернуть
Не в сети
Профиль  
 Добавлено: 2011-12-04 21:05 (спустя 28 минут)
Аватара пользователя
Стаж: 8 лет 10 месяцев
Возраст: 27
Сообщений: 721
Спасибок: 5528
Лайков: 1
пасибо, давно ждал в дубляже :)
_________________
Изображение
Не в сети
Профиль  
 Добавлено: 2011-12-06 17:47 (спустя 1 день 20 часов)
Кинокомментатор
Аватара пользователя
Стаж: 9 лет 1 месяц
Сообщений: 1331
Лайков: 52
обезьян походу тут не переводят:( понятно:(
_________________
Я ВКонтакте
Не в сети
Профиль  
 Добавлено: 2011-12-08 06:33 (спустя 1 день 12 часов)
Кинокомментатор
Аватара пользователя
Стаж: 9 лет 1 месяц
Сообщений: 1331
Лайков: 52
фильм шикарен) очень порадовал меня и щас и когда в кино смотрел! линия судьбы и жизнь гл героя Цезаря, очень сильна, и я очень хочу продолжения!)
в фильме всё красиво и динамично, всё интересно, и в принципе правдиво:) ну я имею ввиду характеры персонажей всевозможных:) но смотря "эту" версию, вы явно не поймёте характер орангутана:) а он меня очень порадовал в кинотеатре:) сражения тоже зачёт! прыжок гориллы на вертолёт... в кинотеатре это было нечто) по тв канешн не так выглядит, но всё равно очень эмоциональные обезьяны:) круто!)
9/10
_________________
Я ВКонтакте
Не в сети
Профиль  
 Добавлено: 2011-12-08 08:21 (спустя 1 час 48 минут)
Модератор
Аватара пользователя
Стаж: 9 лет
Сообщений: 3080
Спасибок: 4101

Bronks:

модерам спасибо за удаление мнения по фильму и по релизу;)
Ваше мнение не удалено, а лежит в специально оборудованном для этого месте :)
Мнения по фильму вернул, а выяснять отношения с релизерами вы можете посредством системы личным сообщений.
_________________
Изображение
Наша жизнь - сумасшедшее шоу, наша гибель - финальный бугурт...
Чтобы тебя заметили Боги, надо быть впереди!

Мои раздачи на "NNTT.ORG" | Правила раздела "Кино" | Ветеринарный кабинет "Рыжий Кот"
Не в сети
Профиль  
 Добавлено: 2011-12-09 16:21 (спустя 1 день 7 часов)
Аватара пользователя
Стаж: 8 лет 10 месяцев
Возраст: 27
Сообщений: 721
Спасибок: 5528
Лайков: 1
отличный фильм, очень понравился :)
_________________
Изображение
Не в сети
Профиль  
 Добавлено: 2013-07-21 19:20 (спустя 1 год 7 месяцев)
Аватара пользователя
Стаж: 8 лет 4 месяца
Возраст: 27
Сообщений: 125
Лайков: 1
Помогите скачать!)
Не в сети
Профиль  
 Добавлено: 2014-05-25 15:42 (спустя 10 месяцев)
Стаж: 8 лет 3 месяца
Сообщений: 34
Раздайте пожалуйста.
Не в сети
Профиль  
Начать новую темуОтветить на тему  [ Сообщений: 8 ] 
Вы не можете начинать темы
Вы не можете отвечать на сообщения
Вы не можете редактировать свои сообщения
Вы не можете удалять свои сообщения