Правила форума

  • В этом разделе создание новых тем Запрещено.
  • Для создания новых тем пользуйтесь Корневым разделом DVD и HD фильмы.
Начать новую темуОтветить на тему  [ Сообщений: 4 ] 
Торрент файл
Размер: 4.37 GB • Зарегистрирован: 5 лет • Статус: Проверено
Скачан: 252 раза • Желающих скачать: 0 • Поблагодарили: 37 раз
 Раздают: 0  |  0 KB/s  ]   Качают: 0  |  0 KB/s  ] 
 Полного источника не было 7 часов 
Сообщения
 Добавлено: 2011-11-15 09:46
Top-releaser
Аватара пользователя
Стаж: 8 лет 9 месяцев
Сообщений: 479
Спасибок: 20187
Лайков: 16
Изображение

Rise of the Planet of the Apes


« Эволюция становится революцией »

Изображение


Год выпуска: 2011
Страна: Изображение США; Изображение Twentieth Century Fox Film Corporation
Жанр: Фантастика, боевик, триллер, драма
Продолжительность: 01:44:56
Перевод: Профессиональный (Многоголосый закадровый) [студия «Омикрон»]

Режиссёр: Руперт Уайатт / Rupert Wyatt

В ролях: Джеймс Франко, Фрида Пинто, Джон Литгоу, Брайан Кокс, Том Фелтон, Дэвид Ойелоуо, Тайлер Лэбин, Джэми Харрис, Дэвид Хьюлетт, Ти Олссон и др.

Описание: Молодой ученый испытывает на обезьянах новое лекарство от болезни Альцгеймера. У препарата обнаруживается удивительный побочный эффект, он повышает в несколько раз интеллект приматов.


Качество: BDRip 1080p
Формат: MKV

Видео: 1920x816, 5574 Кбит/сек, 23,976 кадр/сек, AVC, x264, 2,35:1, 0.148 Бит/[Пиксели*Кадры], 2pass
Аудио: AC-3, 384 Кбит/сек, 6 канала(ов), 48,0 КГц


Раздача: Изображение

Изображение

Изображение
MediaInfo

Общее
Уникальный идентификатор : 176435551622233717461205060382235567901 (0x84BC404F74429F419C64727AB6DC271D)
Полное имя : C:\Users\Домашний\Desktop\Rise of the Planet of the Apes.2011.BDRip.1080p.MVO [nntt].mkv
Формат : Matroska
Размер файла : 4,37 Гбайт
Продолжительность : 1 ч. 44 м.
Общий поток : 5957 Кбит/сек
Название фильма : Rip by Blo
Дата кодирования : UTC 2011-11-15 02:38:36
Программа кодирования : mkvmerge v3.2.0 ('Beginnings') built on Feb 12 2010 16:46:17
Библиотека кодирования : libebml v0.7.9 + libmatroska v0.8.1

Видео
Идентификатор : 1
Формат : AVC
Формат/Информация : Advanced Video Codec
Профиль формата : High@L4.0
Параметр CABAC формата : Да
Параметр ReFrames формата : 2 кадры
Параметры GOP формата : M=4, N=59
Идентификатор кодека : V_MPEG4/ISO/AVC
Продолжительность : 1 ч. 44 м.
Битрейт : 5574 Кбит/сек
Ширина : 1920 пикс.
Высота : 816 пикс.
Соотношение сторон : 2,35:1
Соотношение сторон в оригинале : 2,35:1
Режим частоты кадров : Переменный
Частота кадров : 23,976 кадр/сек
Цветовое пространство : YUV
Подвыборка цветности : 4:2:0
Битовая глубина : 8 бит
Тип развёртки : Прогрессивная
Бит/(Пиксели*Кадры) : 0.148
Размер потока : 4,00 Гбайт (92%)
Заголовок : Восстание планеты обезьян
Библиотека кодирования : x264 core 112 r1834 a51816a
Настройки программы : cabac=1 / ref=2 / deblock=1:0:0 / analyse=0x3:0x113 / me=hex / subme=6 / psy=1 / psy_rd=1.00:0.00 / mixed_ref=0 / me_range=16 / chroma_me=1 / trellis=0 / 8x8dct=1 / cqm=0 / deadzone=21,11 / fast_pskip=1 / chroma_qp_offset=-2 / threads=4 / sliced_threads=0 / nr=0 / decimate=1 / interlaced=0 / constrained_intra=0 / bframes=3 / b_pyramid=0 / b_adapt=1 / b_bias=0 / direct=3 / weightb=1 / open_gop=0 / weightp=2 / keyint=250 / keyint_min=25 / scenecut=40 / intra_refresh=0 / rc_lookahead=40 / rc=2pass / mbtree=1 / bitrate=5574 / ratetol=1.0 / qcomp=0.60 / qpmin=10 / qpmax=51 / qpstep=4 / cplxblur=20.0 / qblur=0.5 / ip_ratio=1.41 / aq=1:1.00
Язык : English

Аудио
Идентификатор : 2
Формат : AC-3
Формат/Информация : Audio Coding 3
Расширение режима : CM (complete main)
Идентификатор кодека : A_AC3
Продолжительность : 1 ч. 44 м.
Вид битрейта : Постоянный
Битрейт : 384 Кбит/сек
Канал(ы) : 6 канала(ов)
Расположение каналов : Front: L C R, Side: L R, LFE
Частота : 48,0 КГц
Битовая глубина : 16 бит
Метод сжатия : С потерями
Размер потока : 288 Мбайт (6%)
Заголовок : Многоголосый закадровый
Язык : Russian



Свернуть
Скриншоты
Изображение
Изображение
Изображение
Изображение
Изображение
Изображение
Свернуть
_________________
Изображение
Изображение
Не в сети
Профиль  
 Добавлено: 2011-11-19 12:55 (спустя 4 дня)
Стаж: 7 лет
Сообщений: 86
спасибо за фильм!!!!
Не в сети
Профиль  
 Добавлено: 2011-11-26 15:28 (спустя 7 дней)
Стаж: 7 лет 2 месяца
Сообщений: 1
что за фигня?!изображения нет,только звук!!
Не в сети
Профиль  
 Добавлено: 2012-01-07 04:15 (спустя 1 месяц 10 дней)
Аватара пользователя
Стаж: 7 лет 8 месяцев
Сообщений: 17
Спасибо чувак есть всё изображуха, и звук :ti_pa:
Не в сети
Профиль  
Начать новую темуОтветить на тему  [ Сообщений: 4 ] 
Вы не можете начинать темы
Вы не можете отвечать на сообщения
Вы не можете редактировать свои сообщения
Вы не можете удалять свои сообщения