Правила форума

  • В этом разделе создание новых тем Запрещено.
  • Для создания новых тем пользуйтесь Корневым разделом DVD и HD фильмы.
Начать новую темуОтветить на тему  [ Сообщений: 11 ] 
Торрент файл
Размер: 13.88 GB • Зарегистрирован: 5 лет • Статус: Проверено
Скачан: 234 раза • Желающих скачать: 0 • Поблагодарили: 49 раз
 Раздают: 0  |  0 KB/s  ]   Качают: 0  |  0 KB/s  ] 
 Полного источника не было 2 года 10 месяцев 
Сообщения
 Добавлено: 2011-11-14 18:10
Top-releaser
Стаж: 7 лет 4 месяца
Возраст: 33
Сообщений: 409
Спасибок: 6402
Лайков: 6
Восстание планеты обезьян
Rise of the Planet of the Apes

«Evolution Becomes Revolution»

Изображение
Год выпуска: 2011
Страна: США
Жанр: фантастика, боевик, триллер, драма
Продолжительность: 01:44:56
Перевод: Профессиональный (многоголосый) [студия «Омикрон»]

Режиссер: Руперт Уайатт (Rupert Wyatt)
Сценарий: Рик Джаффа / Rick Jaffa, Аманда Сильвер / Amanda Silver, Пьер Буль / Pierre Boulle
Продюсер: Дилан Кларк / Dylan Clark, Рик Джаффа / Rick Jaffa, Аманда Сильвер / Amanda Silver, Томас М. Хэммел / Thomas M. Hammel, Курт Уильямс / Kurt Williams
Оператор: Эндрю Лесни / Andrew Lesnie
Композитор: Патрик Дойл / Patrick Doyle

В ролях: Джеймс Франко (Will Rodman), Джон Литгоу (Charles Rodman), Фрида Пинто (Caroline Aranha), Тайлер Лэбин (Robert Franklin), Брайан Кокс (John Landon), Том Фелтон (Dodge Landon), Дэвид Ойелоуо (Steven Jacobs), Джэми Харрис (Rodney), Дэвид Хьюлетт (Hunsiker), Ти Олссон (Chief John Hamil), Мэдисон Белл (Alice Hunsiker), Макена Джой (Alice Hunsiker)

Описание: Молодой ученый испытывает на обезьянах новое лекарство от болезни Альцгеймера. У препарата обнаруживается удивительный побочный эффект, он повышает в несколько раз интеллект приматов.

Рейтинг
Kinopoisk.RU: 7.571 (16 252)
Imdb.com: 7.80 (72 189)
Mpaa: Изображение

Качество: BDRip 1080p
Формат: MKV
Видео: AVC; 1920x816 (2.35:1); 15939 Kbps; 23,976 fps; 0,424 bpp
Аудио 1: Rus; DTS; 1509 Kbps; CBR; 6 ch;
Аудио 2: Eng; DTS; 1509 Kbps; CBR; 6 ch;
Субтитры: English

Релиз: Изображение Изображение
MI
General
Unique ID : 246480964382305016214923535986621200102 (0xB96E81CAEB000F56A34B99DA0C70B6E6)
Complete name : D:\uTorrent\Rise.of.the.Planet.of.the.Apes.2011.1080p.BluRay.DTS.Rus.Eng.HDCLUB.mkv
Format : Matroska
Format version : Version 2
File size : 13.9 GiB
Duration : 1h 44mn
Overall bit rate : 18.9 Mbps
Movie name : Rise of the Planet of the Apes (2011) - Release for HDCLUB
Encoded date : UTC 2011-11-14 12:15:13
Writing application : mkvmerge v3.4.0 ('Rapunzel') built on May 15 2010 09:38:20
Writing library : libebml v0.8.0 + libmatroska v0.9.0

Video
ID : 1
Format : AVC
Format/Info : Advanced Video Codec
Format profile : High@L4.1
Format settings, CABAC : Yes
Format settings, ReFrames : 5 frames
Codec ID : V_MPEG4/ISO/AVC
Duration : 1h 44mn
Bit rate : 15.9 Mbps
Width : 1 920 pixels
Height : 816 pixels
Display aspect ratio : 2.35:1
Frame rate : 23.976 fps
Color space : YUV
Chroma subsampling : 4:2:0
Bit depth : 8 bits
Scan type : Progressive
Bits/(Pixel*Frame) : 0.424
Stream size : 11.4 GiB (82%)
Title : Release for HDCLUB
Writing library : x264 core 116 r2074 2641b9e
Encoding settings : cabac=1 / ref=5 / deblock=1:-3:-3 / analyse=0x3:0x133 / me=umh / subme=10 / psy=1 / psy_rd=1.00:0.00 / mixed_ref=1 / me_range=48 / chroma_me=1 / trellis=2 / 8x8dct=1 / cqm=0 / deadzone=21,11 / fast_pskip=1 / chroma_qp_offset=-2 / threads=12 / sliced_threads=0 / nr=0 / decimate=0 / interlaced=0 / bluray_compat=0 / constrained_intra=0 / bframes=8 / b_pyramid=2 / b_adapt=2 / b_bias=0 / direct=3 / weightb=1 / open_gop=0 / weightp=2 / keyint=250 / keyint_min=23 / scenecut=40 / intra_refresh=0 / rc_lookahead=60 / rc=2pass / mbtree=1 / bitrate=15939 / ratetol=1.0 / qcomp=0.60 / qpmin=0 / qpmax=69 / qpstep=4 / cplxblur=20.0 / qblur=0.5 / vbv_maxrate=50000 / vbv_bufsize=50000 / nal_hrd=none / ip_ratio=1.50 / aq=1:1.00
Language : English

Audio #1
ID : 2
Format : DTS
Format/Info : Digital Theater Systems
Codec ID : A_DTS
Duration : 1h 44mn
Bit rate mode : Constant
Bit rate : 1 510 Kbps
Channel(s) : 6 channels
Channel positions : Front: L C R, Side: L R, LFE
Sampling rate : 48.0 KHz
Bit depth : 24 bits
Compression mode : Lossy
Stream size : 1.11 GiB (8%)
Title : DTS 5.1 1536 kbps Многоголосый закадровый, студия «Омикрон»
Language : Russian

Audio #2
ID : 3
Format : DTS
Format/Info : Digital Theater Systems
Codec ID : A_DTS
Duration : 1h 44mn
Bit rate mode : Constant
Bit rate : 1 510 Kbps
Channel(s) : 6 channels
Channel positions : Front: L C R, Side: L R, LFE
Sampling rate : 48.0 KHz
Bit depth : 24 bits
Compression mode : Lossy
Delay relative to video : 11ms
Stream size : 1.11 GiB (8%)
Title : DTS 5.1 1536 kbps
Language : English

Text
ID : 4
Format : UTF-8
Codec ID : S_TEXT/UTF8
Codec ID/Info : UTF-8 Plain Text
Language : English

Свернуть
"Знаете ли Вы, что..."
  • Шимпанзе Цезаря (зачинщика обезьяньего бунта) изобразил Энди Серкис, ранее подаривший пластику и мимику Голлуму и Кинг Конгу.
  • «Восстание…» – первый фильм «обезьяньей» франшизы, в котором четверорукие приматы представляют собой CG-модели. В римейке «Планеты обезьян» Тима Бертона обезьян играли актеры в сложном гриме.
  • У картины было три рабочих названия: «Цезарь» (Caesar), «Цезарь: Восстание обезьян» (Caesar: Rise of the Apes) и «Восстание обезьян» (Rise of the Apes). Окончательным названием – «Восстание планеты обезьян» (Rise of the Planet of the Apes) создатели фильма решили подчеркнуть связь с франшизой «Планета обезьян» (Planet of the Apes).
  • Цезарь использует связку палок, чтобы объяснить Морису, как одна обезьяна слаба, а обезьяны вместе - сильны. Так же связка палок, или Фа́сции, была символом власти в древнем Риме, происхождении имени Цезаря. Образ Цезаря также напоминает о Бенито Муссолини, который принял Фа́сции как символ его итальянской Фашистской стороны.
  • На роль Уилла, которого сыграл Джеймс Франко, рассматривался также Тоби Магуайр.
Свернуть
Скриншоты
Изображение

Изображение

Изображение
Свернуть


Последний раз редактировалось balaganin 2011-11-14 19:49, всего редактировалось 1 раз.
Не в сети
Профиль  
 Добавлено: 2011-11-14 18:59 (спустя 49 минут)
Аватара пользователя
Стаж: 8 лет 3 месяца
Возраст: 43
Сообщений: 3290
Спасибок: 21012
Лайков: 3
на 5 дней прилепляем, все же профессиональный перевод :co_ol:
_________________
Изображение
Не в сети
Профиль  
 Добавлено: 2011-11-14 19:06 (спустя 6 минут)
Аватара пользователя
Стаж: 9 лет
Сообщений: 167
Спасибок: 38
когда полный фул ашди будет жду
Не в сети
Профиль  
 Добавлено: 2011-11-14 19:19 (спустя 13 минут)
Top-releaser
Стаж: 7 лет 4 месяца
Возраст: 33
Сообщений: 409
Спасибок: 6402
Лайков: 6
Иванишко
:ya-za:
Не в сети
Профиль  
 Добавлено: 2011-11-14 19:20 (спустя 1 минута)
Стаж: 8 лет 3 месяца
Сообщений: 7
Спасибок: 1
дубляж когда?
Не в сети
Профиль  
 Добавлено: 2011-11-14 19:21 (спустя 1 минута)
Аватара пользователя
Стаж: 8 лет 3 месяца
Возраст: 43
Сообщений: 3290
Спасибок: 21012
Лайков: 3
Перевод отличный :co_ol:
balaganin
добавьте пожалуйста сэмпл, что бы у людей не возникало вопросов. ОК ? :)
_________________
Изображение
Не в сети
Профиль  
 Добавлено: 2011-11-14 19:43 (спустя 21 минута)
Top-releaser
Аватара пользователя
Стаж: 8 лет 7 месяцев
Сообщений: 1286
Спасибок: 3420
Лайков: 7

dilmah:

когда полный фул ашди будет жду
А это какой? 1080p, полнее не бывает.
Не в сети
Профиль  
 Добавлено: 2011-11-14 20:27 (спустя 43 минуты)
Стаж: 7 лет 3 месяца
Сообщений: 1
скорости плиз....
Не в сети
Профиль  
 Добавлено: 2011-11-14 22:10 (спустя 1 час 43 минуты)
Стаж: 6 лет 1 месяц
Сообщений: 84

Shamman:

А это какой? 1080p, полнее не бывает.
Я думаю dilmah имел(а) ввиду Blu-ray диск, или BD-Remux, тоесть максимальное качество изображения. :)
P.S. У BDRip-пов 1080 битрейт маловат, жду Remux или Blu-ray :men:
Не в сети
Профиль  
 Добавлено: 2011-11-14 22:41 (спустя 30 минут)
Top-releaser
Аватара пользователя
Стаж: 8 лет 7 месяцев
Сообщений: 1286
Спасибок: 3420
Лайков: 7

Liporik:

Shamman:

А это какой? 1080p, полнее не бывает.
Я думаю dilmah имел(а) ввиду Blu-ray диск, или BD-Remux, тоесть максимальное качество изображения. :)
P.S. У BDRip-пов 1080 битрейт маловат, жду Remux или Blu-ray :men:
Ждём тогда официальный релиз с бубняжём, до 15 декабря немного осталось :par_don:
Не в сети
Профиль  
 Добавлено: 2011-12-01 08:08 (спустя 16 дней)
Аватара пользователя
Стаж: 7 лет 11 месяцев
Сообщений: 786
Спасибок: 25
Лайков: 9
;) Спасибо
Не в сети
Профиль  
Начать новую темуОтветить на тему  [ Сообщений: 11 ] 
Вы не можете начинать темы
Вы не можете отвечать на сообщения
Вы не можете редактировать свои сообщения
Вы не можете удалять свои сообщения