Правила форума

  • В этом разделе создание новых тем Запрещено.
  • Для создания новых тем пользуйтесь Корневым разделом DVD и HD фильмы.
Начать новую темуОтветить на тему  [ Сообщений: 5 ] 
Торрент файл
Размер: 6.78 GB • Зарегистрирован: 5 лет • Статус: Проверено
Скачан: 68 раз • Желающих скачать: 0 • Поблагодарили: 18 раз
 Раздают: 0  |  0 KB/s  ]   Качают: 0  |  0 KB/s  ] 
 Полного источника не было 2 года 11 месяцев 
Сообщения
 Добавлено: 2011-11-19 10:12
Модератор релиз-группы
Аватара пользователя
Стаж: 9 лет 1 месяц
Возраст: 97
Сообщений: 11660
Спасибок: 6534
Лайков: 269
Вой: Перерождение / The Howling: Reborn

Изображение


Год выпуска: 2011
Страна: США
Жанр: ужасы, триллер
Продолжительность: 01:32:00
Перевод: Профессиональный (многоголосый, закадровый)
Оригинальная аудиодорожка
Субтитры: русский

Режиссер: Джо Нимзики / Joe Nimziki

В ролях: Лэндон Либуарон, Ивана Миличевич, Линдси Шоу, Нильс Шнайдер, Эрин Симс, Эрин Агостино, Kristian Hodko, Шон Меркадо

Описание: Накануне окончания средней школы обыкновенному парню Уиллу Кидману все-таки удается обратить на себя внимание красавицы Элины Уинтер. Молодые люди счастливы, но внезапно открывается страшная тайна прошлого Уилла — близится час, когда ему предстоит стать оборотнем. Не желая смириться с судьбой, молодые люди нарушают древний мистический цикл и теперь за ними начинает охотиться целая армия безжалостных демонических тварей. Тем временем сдерживать возрастающую жажду крови Уиллу становится все труднее...

Изображение
Качество: BDRip
Формат: MKV
Видео: MPEG-4 AVC Video 9512 kbps 1920 x 1080 p / 23,976 fps / 16:9 / High Profile 4.1
Аудио: Dolby Digital Audio Russian 5.1 / 48 kHz / 384 kbps
Аудио: Dolby Digital Audio English 5.1 / 48 kHz / 640 kbps

скриншоты
Изображение

Изображение

Изображение

Изображение
Свернуть
mi
Format : Matroska
File size : 6.78 GiB
Duration : 1h 32mn
Overall bit rate : 10.5 Mbps
Movie name : The.Howling.Reborn.2011.BluRay.1080P.DTS.X264-CHD [rutracker.org]
Encoded date : UTC 2011-11-18 22:52:53
Writing application : mkvmerge v4.9.1 ('Ich will') сборка от Jul 11 2011 23:53:15
Writing library : libebml v1.2.1 + libmatroska v1.1.1

Video
ID : 1
Format : AVC
Format/Info : Advanced Video Codec
Format profile : High@L4.1
Format settings, CABAC : Yes
Format settings, ReFrames : 4 frames
Format settings, GOP : M=1, N=16
Muxing mode : Container profile=Unknown@4.1
Codec ID : V_MPEG4/ISO/AVC
Duration : 1h 32mn
Bit rate : 9 512 Kbps
Width : 1 920 pixels
Height : 1 080 pixels
Display aspect ratio : 16:9
Frame rate : 23.976 fps
Color space : YUV
Chroma subsampling : 4:2:0
Bit depth : 8 bits
Scan type : Progressive
Bits/(Pixel*Frame) : 0.191
Stream size : 5.98 GiB (88%)
Writing library : x264 core 115 r2008 4c552d8
Encoding settings : cabac=1 / ref=4 / deblock=1:-3:-3 / analyse=0x3:0x113 / me=umh / subme=10 / psy=1 / psy_rd=1.10:0.15 / mixed_ref=1 / me_range=32 / chroma_me=1 / trellis=2 / 8x8dct=1 / cqm=2 / deadzone=21,11 / fast_pskip=0 / chroma_qp_offset=-2 / threads=12 / sliced_threads=0 / nr=0 / decimate=1 / interlaced=0 / bluray_compat=0 / constrained_intra=0 / bframes=6 / b_pyramid=2 / b_adapt=2 / b_bias=0 / direct=3 / weightb=1 / open_gop=0 / weightp=2 / keyint=250 / keyint_min=23 / scenecut=40 / intra_refresh=0 / rc_lookahead=60 / rc=2pass / mbtree=1 / bitrate=9512 / ratetol=1.0 / qcomp=0.60 / qpmin=1 / qpmax=63 / qpstep=4 / cplxblur=20.0 / qblur=0.5 / vbv_maxrate=40000 / vbv_bufsize=30000 / nal_hrd=none / ip_ratio=1.40 / aq=1:0.80
Language : English

Audio #1
ID : 2
Format : AC-3
Format/Info : Audio Coding 3
Mode extension : CM (complete main)
Codec ID : A_AC3
Duration : 1h 32mn
Bit rate mode : Constant
Bit rate : 384 Kbps
Channel(s) : 6 channels
Channel positions : Front: L C R, Side: L R, LFE
Sampling rate : 48.0 KHz
Bit depth : 16 bits
Stream size : 253 MiB (4%)
Title : MVO
Language : Russian

Audio #2
ID : 3
Format : AC-3
Format/Info : Audio Coding 3
Mode extension : CM (complete main)
Codec ID : A_AC3
Duration : 1h 32mn
Bit rate mode : Constant
Bit rate : 640 Kbps
Channel(s) : 6 channels
Channel positions : Front: L C R, Side: L R, LFE
Sampling rate : 48.0 KHz
Bit depth : 16 bits
Stream size : 422 MiB (6%)
Language : English

Text #1
ID : 4
Format : UTF-8
Codec ID : S_TEXT/UTF8
Codec ID/Info : UTF-8 Plain Text
Language : Russian

Text #2
ID : 5
Format : UTF-8
Codec ID : S_TEXT/UTF8
Codec ID/Info : UTF-8 Plain Text
Language : English

Menu
00:00:00.000 : en:00:00:00.000
00:04:29.728 : en:00:04:29.728
00:12:42.470 : en:00:12:42.470
00:21:31.540 : en:00:21:31.540
00:29:52.457 : en:00:29:52.457
00:37:59.235 : en:00:37:59.235
00:47:13.706 : en:00:47:13.706
00:55:29.243 : en:00:55:29.243
01:04:59.938 : en:01:04:59.938
01:10:26.931 : en:01:10:26.931
01:22:44.501 : en:01:22:44.501
01:28:33.683 : en:01:28:33.683
Свернуть
_________________
Изображение
Не в сети
Профиль  
 Добавлено: 2011-11-20 00:37 (спустя 14 часов)
Кинокомментатор
Аватара пользователя
Стаж: 9 лет 1 месяц
Сообщений: 1332
Лайков: 54
тооооже шлак)
_________________
Я ВКонтакте
Не в сети
Профиль  
 Добавлено: 2011-11-28 19:45 (спустя 8 дней)
Модератор релиз-группы
Аватара пользователя
Стаж: 9 лет 1 месяц
Возраст: 97
Сообщений: 11660
Спасибок: 6534
Лайков: 269
я не думаю, что это хуже, чем Цузые на раене...
кинокритики джаляб, такие комментатооры
_________________
Изображение
Не в сети
Профиль  
 Добавлено: 2011-11-29 09:06 (спустя 13 часов)
Стаж: 5 лет 8 месяцев
Сообщений: 17
на четвертом скрине поттер :-D
Не в сети
Профиль  
 Добавлено: 2011-12-03 23:46 (спустя 4 дня)
Аватара пользователя
Стаж: 6 лет 9 месяцев
Сообщений: 922

$RedSmile$:

на четвертом скрине поттер :-D
+1
видимо развитие сумеречной темы? :ze_le_ny:
Не в сети
Профиль  
Начать новую темуОтветить на тему  [ Сообщений: 5 ] 
Вы не можете начинать темы
Вы не можете отвечать на сообщения
Вы не можете редактировать свои сообщения
Вы не можете удалять свои сообщения