Правила форума

  • В этом разделе создание новых тем Запрещено.
  • Для создания новых тем пользуйтесь Корневым разделом DVD и HD фильмы.
Начать новую темуОтветить на тему  [ Сообщений: 5 ] 
Торрент файл
Размер: 11.92 GB • Зарегистрирован: 4 года 10 месяцев • Статус: Проверено
Скачан: 133 раза • Желающих скачать: 0 • Поблагодарили: 21 раз
 Раздают: 0  |  0 KB/s  ]   Качают: 0  |  0 KB/s  ] 
 Полного источника не было 10 месяцев 
Сообщения
 Добавлено: 2012-01-22 22:22
Top-seeder
Аватара пользователя
Стаж: 9 лет
Сообщений: 1399
Спасибок: 28651
Лайков: 8
Война Богов: Бессмертные / Immortals

Изображение


Перевод: Профессиональный (полное дублирование)
Субтитры: Отсутствуют
Формат: BD Remux, MKV, H.264, AC3
Страна: США
Режиссер: Тарсем Синх
Жанр: фэнтези, боевик, драма
Продолжительность: 01:50:22
Год выпуска: 2011

В ролях: Генри Кавилл, Стивен Дорфф, Люк Эванс, Изабель Лукас, Келлан Латс, Фрида Пинто, Микки Рурк, Джон Хёрт, Джозеф Морган, Энн Дэй-Джонс

Описание: Одержимый жаждой власти царь Гиперион хочет уничтожить род людской и низвергнуть богов. С помощью Эпирского Лука, сделанного руками бога войны Ареса, он освобождает Титанов от тысячелетнего заточения в горах Тартара. Боги бессильны противостоять безумному царю. Единственная надежда на спасение — герой Тесей, который вступает в неравную войну с Титанами. Боги Олимпа во главе с самим Зевсом, пророчица Федра и хитрый раб Ставрос помогают герою в смертельной битве с демонами. Тесей должен победить, или боги Олимпа будут низвержены, а Эллада обречена на погибель…

Видео: 1920х1080p (16:9), 23.976 fps, AVC MPEG-4 (x264) High@L4.1, ~ 15019 кб/с, 0.292 bit/pixel
Аудио: Русский 48 kHz, (AC3), 6ch, ~ 640 Кбит/сек [Профессиональный (полное дублирование)]

Слоган: «Богам нужен герой»

MI
Общее
Уникальный идентификатор : 248075739941128327144297099488854380937 (0xBAA1A64C5F901F8E9563A48CC6BD9189)
Полное имя : D:\Закачки\Война Богов Бессмертные (BD 1080p).mkv
Формат : Matroska
Размер файла : 11,9 Гбайт
Продолжительность : 1 ч. 50 м.
Общий поток : 15,5 Мбит/сек
Дата кодирования : UTC 2012-01-18 12:41:19
Программа кодирования : mkvmerge v2.2.0 ('Turn It On Again') built on Mar 4 2008 13:20:25
Библиотека кодирования : libebml v0.7.7 + libmatroska v0.8.1

Видео
Идентификатор : 1
Формат : AVC
Формат/Информация : Advanced Video Codec
Профиль формата : Main@L4.1
Параметр CABAC формата : Да
Параметр ReFrames формата : 3 кадра
Идентификатор кодека : V_MPEG4/ISO/AVC
Продолжительность : 1 ч. 50 м.
Вид битрейта : Переменный
Битрейт : 14,5 Мбит/сек
Максимальный битрейт : 25,0 Мбит/сек
Ширина : 1920 пикс.
Высота : 1080 пикс.
Соотношение сторон : 16:9
Частота кадров : 23,976 кадр/сек
Стандарт вещания : NTSC
Цветовое пространство : YUV
Подвыборка цветности : 4:2:0
Битовая глубина : 8 бит
Тип развёртки : Прогрессивная
Бит/(Пиксели*Кадры) : 0.292
Размер потока : 11,2 Гбайт (94%)

Аудио
Идентификатор : 2
Формат : AC-3
Формат/Информация : Audio Coding 3
Расширение режима : CM (complete main)
Идентификатор кодека : A_AC3
Продолжительность : 1 ч. 50 м.
Вид битрейта : Постоянный
Битрейт : 640 Кбит/сек
Каналы : 6 каналов
Расположение каналов : Front: L C R, Side: L R, LFE
Частота : 48,0 КГц
Битовая глубина : 16 бит
Метод сжатия : С потерями
Размер потока : 505 Мбайт (4%)
Свернуть

Скриншоты
ИзображениеИзображениеИзображениеИзображениеИзображение
Свернуть
Не в сети
Профиль  
 Добавлено: 2012-01-23 01:53 (спустя 3 часа)
Стаж: 6 лет 3 месяца
Сообщений: 493
Лайков: 28
А почему все боги вечно одеты, как на гей-параде? Им не западло?
По-моему, это многое говорит не только о создателях всех этих религий, но и о режиссерах ;)
Не в сети
Профиль  
 Добавлено: 2012-01-23 17:19 (спустя 15 часов)
Top-releaser
Аватара пользователя
Стаж: 8 лет 9 месяцев
Сообщений: 479
Спасибок: 20188
Лайков: 16
Повтор
_________________
Изображение
Изображение
Не в сети
Профиль  
 Добавлено: 2012-02-05 12:19 (спустя 12 дней)
Аватара пользователя
Стаж: 6 лет 3 месяца
Сообщений: 26
ни о чЁм :ze_va_et:
Не в сети
Профиль  
 Добавлено: 2012-11-04 23:27 (спустя 8 месяцев)
Стаж: 8 лет
Сообщений: 39
Нормальная картина!
Не в сети
Профиль  
Начать новую темуОтветить на тему  [ Сообщений: 5 ] 
Вы не можете начинать темы
Вы не можете отвечать на сообщения
Вы не можете редактировать свои сообщения
Вы не можете удалять свои сообщения