Правила форума

  • В этом разделе создание новых тем Запрещено.
  • Для создания новых тем пользуйтесь Корневым разделом DVD и HD фильмы.
Начать новую темуОтветить на тему  [ Сообщений: 5 ] 
Торрент файл
Размер: 11.92 GB • Зарегистрирован: 4 года 10 месяцев • Статус: Проверено
Скачан: 258 раз • Желающих скачать: 0 • Поблагодарили: 58 раз
 Раздают: 0  |  0 KB/s  ]   Качают: 0  |  0 KB/s  ] 
 Полного источника не было 9 месяцев 
Сообщения
 Добавлено: 2012-01-20 16:54
Top-releaser
Аватара пользователя
Стаж: 8 лет 9 месяцев
Сообщений: 479
Спасибок: 20188
Лайков: 16
Изображение

Изображение

Immortals


«Богам нужен герой»


Год выпуска: 2011
Страна: Изображение США; Relativity Media
Жанр: Фэнтези, боевик, драма
Продолжительность: 01:50:22
Перевод: Профессиональный (дублированный) [Лицензия]

Режиссёр: Тарсем Синх / Tarsem Singh

В ролях: Генри Кавилл, Стивен Дорфф, Люк Эванс, Изабель Лукас, Келлан Латс, Фрида Пинто, Микки Рурк, Джон Хёрт, Джозеф Морган, Энн Дэй-Джонс и др.

Описание: Одержимый жаждой власти царь Гиперион хочет уничтожить род людской и низвергнуть богов. С помощью Эпирского Лука, сделанного руками бога войны Ареса, он освобождает Титанов от тысячелетнего заточения в горах Тартара. Боги бессильны противостоять безумному царю. Единственная надежда на спасение — герой Тесей, который вступает в неравную войну с Титанами. Боги Олимпа во главе с самим Зевсом, пророчица Федра и хитрый раб Ставрос помогают герою в смертельной битве с демонами. Тесей должен победить, или боги Олимпа будут низвержены, а Эллада обречена на погибель…


Качество: BDRemux
Формат: MKV

Видео: AVC, 1920 x 1080 (1.778) at 23.976 fps, 14,5 Мбит/сек
Аудио : AC3 Dolby Digital, 640 Кбит/сек, 6 канала(ов), 48,0 КГц


Раздача: Изображение

Изображение
MediaInfo

Общее
Уникальный идентификатор : 248075739941128327144297099488854380937 (0xBAA1A64C5F901F8E9563A48CC6BD9189)
Полное имя : C:\Users\Домашний\Desktop\Voina.bogov.bessmertnue.2011.Blu-Ray.Remux.(1080p)[nntt].mkv
Формат : Matroska
Размер файла : 11,9 Гбайт
Продолжительность : 1 ч. 50 м.
Общий поток : 15,5 Мбит/сек
Дата кодирования : UTC 2012-01-18 12:41:19
Программа кодирования : mkvmerge v2.2.0 ('Turn It On Again') built on Mar 4 2008 13:20:25
Библиотека кодирования : libebml v0.7.7 + libmatroska v0.8.1

Видео
Идентификатор : 1
Формат : AVC
Формат/Информация : Advanced Video Codec
Профиль формата : Main@L4.1
Параметр CABAC формата : Да
Параметр ReFrames формата : 3 кадры
Идентификатор кодека : V_MPEG4/ISO/AVC
Продолжительность : 1 ч. 50 м.
Вид битрейта : Переменный
Битрейт : 14,5 Мбит/сек
Максимальный битрейт : 25,0 Мбит/сек
Ширина : 1920 пикс.
Высота : 1080 пикс.
Соотношение сторон : 16:9
Частота кадров : 23,976 кадр/сек
Стандарт вещания : NTSC
Цветовое пространство : YUV
Подвыборка цветности : 4:2:0
Битовая глубина : 8 бит
Тип развёртки : Прогрессивная
Бит/(Пиксели*Кадры) : 0.292
Размер потока : 11,2 Гбайт (94%)

Аудио
Идентификатор : 2
Формат : AC-3
Формат/Информация : Audio Coding 3
Расширение режима : CM (complete main)
Идентификатор кодека : A_AC3
Продолжительность : 1 ч. 50 м.
Вид битрейта : Постоянный
Битрейт : 640 Кбит/сек
Канал(ы) : 6 канала(ов)
Расположение каналов : Front: L C R, Side: L R, LFE
Частота : 48,0 КГц
Битовая глубина : 16 бит
Метод сжатия : С потерями
Размер потока : 505 Мбайт (4%)


Свернуть
Скриншоты

Изображение
Изображение
Изображение
Изображение
Изображение
Свернуть
_________________
Изображение
Изображение
Не в сети
Профиль  
 Добавлено: 2012-01-23 18:52 (спустя 3 дня)
Аватара пользователя
Стаж: 5 лет 7 месяцев
Возраст: 26
Сообщений: 224
Спасибок: 6
Забираю)

Добавлено спустя 1 минута:
Люблю исторические фмльмы)
_________________
Изображение
Не в сети
Профиль  
 Добавлено: 2012-10-18 17:25 (спустя 8 месяцев)
Аватара пользователя
Стаж: 7 лет 10 месяцев
Сообщений: 88
Скорости прибавьте. 800кл и 3.30 качать да хорош ))
Не в сети
Профиль  
 Добавлено: 2012-10-19 14:32 (спустя 21 час)
Top-seeder
Аватара пользователя
Стаж: 7 лет 2 месяца
Сообщений: 2144
Спасибок: 571

Molo4nik777:

Люблю исторические фмльмы)
:-D
исторический?
Не в сети
Профиль  
 Добавлено: 2013-01-03 19:14 (спустя 2 месяца 15 дней)
Стаж: 4 года 1 месяц
Сообщений: 17
Дайте, пожалуйста, скорости!
Не в сети
Профиль  
Начать новую темуОтветить на тему  [ Сообщений: 5 ] 
Вы не можете начинать темы
Вы не можете отвечать на сообщения
Вы не можете редактировать свои сообщения
Вы не можете удалять свои сообщения