Правила форума

  • В этом разделе создание новых тем Запрещено.
  • Для создания новых тем пользуйтесь Корневым разделом DVD и HD фильмы.
Начать новую темуОтветить на тему  [ 1 сообщение ] 
Торрент файл
Размер: 5.01 GB • Зарегистрирован: 5 лет 2 месяца • Статус: Проверено
Скачан: 51 раз • Желающих скачать: 0 • Поблагодарили: 15 раз
 Раздают: 0  |  0 KB/s  ]   Качают: 0  |  0 KB/s  ] 
 Полного источника не было 1 год 7 месяцев 
Сообщения
 Добавлено: 2011-09-17 10:16
Top-releaser
Аватара пользователя
Стаж: 8 лет 9 месяцев
Сообщений: 479
Спасибок: 20190
Лайков: 16
Война

War

«Месть как абсолютное оружие»

Изображение


Год выпуска: 2007
Страна: Изображение США
Жанр: Боевик, триллер, криминал
Продолжительность: 01:43:07
Перевод: Профессиональный (полное дублирование), Оригинал
Субтитры: Русские, английские


Режиссёр: Филлип Дж. Этвелл / Phillip G. Atwell

В ролях: Джет Ли, Джейсон Стэтхэм, Джон Лоне, Девон Аоки, Луис Гузман, Сауль Рубинек, Рио Ишибаси, Санг Кенг, Мэтью Ст. Патрик, Надин Веласкес, Андреа Рот, Кеннет Чои, Марк Чэн, Кэйн Косуги, Кеннеди Монтано, Терри Чен, Стеф Сонг, Анника Фу, Николас Элиа, Эрик Кинлисайд, Пол Джарретт

Описание: Уже долгое время полиция не может поймать циничного и беспощадного убийцу. Киллер экстра-класса, о чьей жестокости ходят легенды даже в криминальном мире, практически неуязвим. Играючи, он выскальзывает из какой угодно ловушки и уходит от любой погони, оставляя за собой горы трупов. Агент ФБР Джек Кроуфорд принимает участие в расследовании. Потеряв напарника в одной из схваток с убийцей, он преследует только одну цель - уничтожить неуловимого киллера!


Качество: BDRip 720p
Формат: MKV

Видео: AVC, 1280 x 534 (2.397) at 23.976 fps

Аудио 1: AC3, 448 Кбит/сек, 6 канала(ов), 48,0 КГц (Дубляж)
Аудио 2: AC3, 448 Кбит/сек, 6 канала(ов), 48,0 КГц (Многоголосый LostFilm)
Аудио 3: AC-3, 640 Кбит/сек, 6 канала(ов), 48,0 КГц (Оригинал)
Раздача: Изображение

Изображение
MediaInfo

Общее
Уникальный идентификатор : 173521606592077199984988879941397473227 (0x828B0BBA6D13E73C9901B26C244167CB)
Полное имя : C:\Users\Домашний\Desktop\War.2007.BDRip 720p.[nntt].mkv
Формат : Matroska
Размер файла : 5,01 Гбайт
Продолжительность : 1 ч. 43 м.
Общий поток : 6953 Кбит/сек
Название фильма : War.2007.Bluray.720p.AC3.x264-CHD
Дата кодирования : UTC 2010-11-18 09:09:57
Программа кодирования : mkvmerge v3.4.0 ('Rapunzel') built on May 15 2010 09:38:20
Библиотека кодирования : libebml v0.8.0 + libmatroska v0.9.0

Видео
Идентификатор : 1
Формат : AVC
Формат/Информация : Advanced Video Codec
Профиль формата : High@L4.1
Параметр CABAC формата : Да
Параметр ReFrames формата : 8 кадры
Идентификатор кодека : V_MPEG4/ISO/AVC
Продолжительность : 1 ч. 43 м.
Битрейт : 5425 Кбит/сек
Ширина : 1280 пикс.
Высота : 534 пикс.
Соотношение сторон : 2,35:1
Частота кадров : 23,976 кадр/сек
Цветовое пространство : YUV
Подвыборка цветности : 4:2:0
Битовая глубина : 8 бит
Тип развёртки : Прогрессивная
Бит/(Пиксели*Кадры) : 0.331
Размер потока : 3,80 Гбайт (76%)
Библиотека кодирования : x264 core 84 r1416 fcf70c2
Настройки программы : cabac=1 / ref=8 / deblock=1:-3:-3 / analyse=0x3:0x113 / me=umh / subme=8 / psy=1 / psy_rd=1.1:0.1 / mixed_ref=1 / me_range=32 / chroma_me=1 / trellis=2 / 8x8dct=1 / cqm=2 / deadzone=21,11 / fast_pskip=0 / chroma_qp_offset=-2 / threads=6 / sliced_threads=0 / nr=0 / decimate=1 / mbaff=0 / constrained_intra=0 / bframes=5 / b_pyramid=2 / b_adapt=2 / b_bias=0 / direct=3 / wpredb=1 / wpredp=2 / keyint=250 / keyint_min=25 / scenecut=40 / intra_refresh=0 / rc_lookahead=40 / rc=2pass / mbtree=1 / bitrate=5425 / ratetol=1.0 / qcomp=0.60 / qpmin=10 / qpmax=51 / qpstep=4 / cplxblur=20.0 / qblur=0.5 / vbv_maxrate=50000 / vbv_bufsize=50000 / ip_ratio=1.40 / aq=1:0.80
Язык : English

Аудио #1
Идентификатор : 2
Формат : AC-3
Формат/Информация : Audio Coding 3
Расширение режима : CM (complete main)
Идентификатор кодека : A_AC3
Продолжительность : 1 ч. 43 м.
Вид битрейта : Постоянный
Битрейт : 448 Кбит/сек
Канал(ы) : 6 канала(ов)
Расположение каналов : Front: L C R, Side: L R, LFE
Частота : 48,0 КГц
Битовая глубина : 16 бит
Метод сжатия : С потерями
Размер потока : 330 Мбайт (6%)
Заголовок : Dub
Язык : Russian

Аудио #2
Идентификатор : 3
Формат : AC-3
Формат/Информация : Audio Coding 3
Расширение режима : CM (complete main)
Идентификатор кодека : A_AC3
Продолжительность : 1 ч. 43 м.
Вид битрейта : Постоянный
Битрейт : 448 Кбит/сек
Канал(ы) : 6 канала(ов)
Расположение каналов : Front: L C R, Side: L R, LFE
Частота : 48,0 КГц
Битовая глубина : 16 бит
Метод сжатия : С потерями
Размер потока : 330 Мбайт (6%)
Заголовок : LostFilm
Язык : Russian

Аудио #3
Идентификатор : 4
Формат : AC-3
Формат/Информация : Audio Coding 3
Расширение режима : CM (complete main)
Идентификатор кодека : A_AC3
Продолжительность : 1 ч. 43 м.
Вид битрейта : Постоянный
Битрейт : 640 Кбит/сек
Канал(ы) : 6 канала(ов)
Расположение каналов : Front: L C R, Side: L R, LFE
Частота : 48,0 КГц
Битовая глубина : 16 бит
Метод сжатия : С потерями
Размер потока : 472 Мбайт (9%)
Язык : English

Текст #1
Идентификатор : 5
Формат : UTF-8
Идентификатор кодека : S_TEXT/UTF8
Идентификатор кодека/Информация : UTF-8 Plain Text
Язык : Russian

Текст #2
Идентификатор : 6
Формат : UTF-8
Идентификатор кодека : S_TEXT/UTF8
Идентификатор кодека/Информация : UTF-8 Plain Text
Язык : English

Свернуть
Скриншоты
Изображение
Изображение
Изображение
Изображение
Изображение
Изображение
Свернуть
_________________
Изображение
Изображение
Не в сети
Профиль  
Начать новую темуОтветить на тему  [ 1 сообщение ] 
Вы не можете начинать темы
Вы не можете отвечать на сообщения
Вы не можете редактировать свои сообщения
Вы не можете удалять свои сообщения