Правила форума

  • В этом разделе создание новых тем Запрещено.
  • Для создания новых тем пользуйтесь Корневым разделом DVD и HD фильмы.
Начать новую темуОтветить на тему  [ Сообщений: 11 ] 
Торрент файл
Размер: 10.05 GB • Зарегистрирован: 2 года 6 месяцев • Статус: Проверено
Скачан: 494 раза • Желающих скачать: 0 • Поблагодарили: 156 раз
 Раздают: 1  |  0 KB/s  ]   Качают: 0  |  0 KB/s  ] 
Сообщения
 Добавлено: 2014-05-26 14:27
DVD Release Group
Аватара пользователя
Стаж: 7 лет 1 месяц
Сообщений: 3549
Спасибок: 247075
Лайков: 1018
Воздушный маршал

Non-Stop


Изображение


Год выпуска: 2014
Страна: США
Жанр: Боевик, триллер, детектив
Продолжительность: 01:46:37
Перевод: Профессиональный (полное дублирование)
Субтитры: Русские, английские
Режиссер: Хауме Кольет-Серра
В ролях: Лиам Нисон, Джулианна Мур, Скут МакНэйри, Мишель Докери, Нэйт Паркер, Кори Столл, Лупита Нионго, Омар Метуолли, Джейсон Батлер Харнер, Лайнас Роуч
Описание: Межконтинентальный авиарейс. Билл Маркс, воздушный маршал, который обеспечивает безопасность пассажиров, получает сообщения с угрозами от маньяка-террориста. Преступник просчитал все ходы и подставил под обвинение самого спецагента. Теперь Маркс — цель спецслужб США. Ему остается одно: вычислить и обезвредить преступника, спасти пассажиров и свою любовь, которую он обретает на краю гибели. До взрыва остаются считанные минуты…
Изображение Изображение
Качество: BDRip 1080p
Формат: MKV
Видео кодек: H.264
Аудио кодек: DTS
Видео: 1920x800 23.98fps 11.3 Мбит/с
Аудио:
Аудио Rus: 48kHz 6ch 755kbps
Аудио Eng: 48kHz 6ch 1510kbps
"MediaInfo"
Format : Matroska
File size : 10.1 GiB
Duration : 1h 46mn
Overall bit rate : 13.5 Mbps
Encoded date : UTC 2014-05-30 07:22:00
Writing application : mkvmerge v6.9.1 ('Blue Panther') 64bit built on Apr 18 2014 18:23:38
Writing library : libebml v1.3.0 + libmatroska v1.4.1

Video
ID : 1
Format : AVC
Format/Info : Advanced Video Codec
Format profile : <a href="mailto:High@L4.1" class="postLink">High@L4.1</a>
Format settings, CABAC : Yes
Format settings, ReFrames : 5 frames
Muxing mode : Container profile=Unknown@4.1
Codec ID : V_MPEG4/ISO/AVC
Duration : 1h 46mn
Bit rate : 11.3 Mbps
Width : 1 920 pixels
Height : 800 pixels
Display aspect ratio : 2.40:1
Frame rate : 23.976 fps
Color space : YUV
Chroma subsampling : 4:2:0
Bit depth : 8 bits
Scan type : Progressive
Bits/(Pixel*Frame) : 0.305
Stream size : 8.17 GiB (81%)
Title : Non.Stop.2014
Writing library : x264 core 138 r2356 a1d3d17
Encoding settings : cabac=1 / ref=5 / deblock=1:-3:-3 / analyse=0x3:0x113 / me=umh / subme=10 / psy=1 / psy_rd=1.05:0.10 / mixed_ref=1 / me_range=32 / chroma_me=1 / trellis=2 / 8x8dct=1 / cqm=0 / deadzone=21,11 / fast_pskip=0 / chroma_qp_offset=-2 / threads=18 / lookahead_threads=1 / sliced_threads=0 / nr=0 / decimate=1 / interlaced=0 / bluray_compat=0 / constrained_intra=0 / bframes=5 / b_pyramid=2 / b_adapt=2 / b_bias=0 / direct=3 / weightb=1 / open_gop=0 / weightp=2 / keyint=250 / keyint_min=23 / scenecut=40 / intra_refresh=0 / rc=2pass / mbtree=0 / bitrate=11250 / ratetol=1.0 / qcomp=0.70 / qpmin=0 / qpmax=69 / qpstep=4 / cplxblur=20.0 / qblur=0.5 / ip_ratio=1.40 / pb_ratio=1.30 / aq=2:1.00

Audio #1
ID : 2
Format : DTS
Format/Info : Digital Theater Systems
Codec ID : A_DTS
Duration : 1h 46mn
Bit rate mode : Constant
Bit rate : 755 Kbps
Channel(s) : 6 channels
Channel positions : Front: L C R, Side: L R, LFE
Sampling rate : 48.0 KHz
Bit depth : 24 bits
Stream size : 575 MiB (6%)
Language : Russian

Audio #2
ID : 3
Format : DTS
Format/Info : Digital Theater Systems
Codec ID : A_DTS
Duration : 1h 46mn
Bit rate mode : Constant
Bit rate : 1 510 Kbps
Channel(s) : 6 channels
Channel positions : Front: L C R, Side: L R, LFE
Sampling rate : 48.0 KHz
Bit depth : 24 bits
Stream size : 1.12 GiB (11%)
Title : dts-core 1536k eng

Text #1
ID : 4
Format : UTF-8
Codec ID : S_TEXT/UTF8
Codec ID/Info : UTF-8 Plain Text
Language : Russian

Text #2
ID : 5
Format : UTF-8
Codec ID : S_TEXT/UTF8
Codec ID/Info : UTF-8 Plain Text

Text #3
ID : 6
Format : UTF-8
Codec ID : S_TEXT/UTF8
Codec ID/Info : UTF-8 Plain Text

Menu
00:00:00.000 : en:00:00:00.000
00:04:24.639 : en:00:04:24.639
00:10:29.045 : en:00:10:29.045
00:14:47.053 : en:00:14:47.053
00:18:51.839 : en:00:18:51.839
00:24:22.127 : en:00:24:22.127
00:29:44.574 : en:00:29:44.574
00:35:48.605 : en:00:35:48.605
00:39:28.491 : en:00:39:28.491
00:45:41.572 : en:00:45:41.572
00:49:03.941 : en:00:49:03.941
00:55:17.731 : en:00:55:17.731
01:01:59.257 : en:01:01:59.257
01:08:42.327 : en:01:08:42.327
01:12:16.999 : en:01:12:16.999
01:18:14.982 : en:01:18:14.982
01:26:02.032 : en:01:26:02.032
01:30:46.191 : en:01:30:46.191
01:36:14.727 : en:01:36:14.727
01:40:13.799 : en:01:40:13.799
Свернуть

"Скриншоты"
Изображение
Изображение
Изображение
Изображение
Изображение
Изображение
Изображение
Свернуть


Последний раз редактировалось rastor 2014-05-30 17:17, всего редактировалось 1 раз.
 StepanPochatok, sashannov и yyuuii1223 нравится это.
Не в сети
Профиль  
 Добавлено: 2014-05-28 16:47 (спустя 2 дня 2 часа)
Аватара пользователя
Стаж: 8 лет 7 месяцев
Возраст: 27
Сообщений: 5601
Спасибок: 380
Лайков: 75
бодрый кин! зачет! весь фильм в напряжении... ну кто же, кто???))
Не в сети
Профиль  
 Добавлено: 2014-05-29 21:23 (спустя 1 день 4 часа)
Стаж: 8 лет 7 месяцев
Сообщений: 3
фильм шикарный. редко встретишь такие малобюджетное кино с таким офигенным сюжетом и снятым отлично) смотрите не пожелеете....
Не в сети
Профиль  
 Добавлено: 2014-05-30 18:48 (спустя 21 час)
Стаж: 7 лет 5 месяцев
Сообщений: 25
Не лицензия?
Не в сети
Профиль  
 Добавлено: 2014-05-30 23:25 (спустя 4 часа)
Аватара пользователя
Стаж: 9 лет 1 месяц
Сообщений: 2152
Спасибок: 778
Лайков: 14

amazonia:

Не лицензия?
Хороший вопрос. Судя по сэмплу из HQRip-раздачи с меткой "Мосфильм мастер", перевод как лицензионный со знакомыми русскими голосами.
_________________
PSN
Изображение
Свернуть
Изображение
Не в сети
Профиль  
 Добавлено: 2014-05-31 00:36 (спустя 1 час 11 минут)
Стаж: 6 лет 1 месяц
Сообщений: 72
Фильм просто бомба, рекомендую к просмотру всем любителям триллеров) Да вообще всем!!!
Качество гуд, так же как и звук и титры.
Не в сети
Профиль  
 Добавлено: 2014-05-31 07:44 (спустя 7 часов)
Стаж: 8 лет 1 месяц
Сообщений: 104
Лайков: 2
нормальный фильмец
Не в сети
Профиль  
 Добавлено: 2014-05-31 21:12 (спустя 13 часов)
Стаж: 5 лет 6 месяцев
Сообщений: 99
Лайков: 5

Volodenka1992:

Фильм просто бомба, рекомендую к просмотру всем любителям триллеров) Да вообще всем!!!
Качество гуд, так же как и звук и титры.
Да ну?! Фильм ужасен, и я не совсем понимаю как эти актеры в нем снялись. Воздушный маршал - паникер, Коп на борту самолета - визжащая маленькая девочка сеющая панику, поведение службы маршалов и властей - это просто 5 баллов. Отсутствие каких либо логических цепочек (просто куча провалов, тут мог бы быть гигантский спойлер, но лень). Концовка просто убила - сценаристу привет. Короче, даже моя жена смеялась как лошадь(прости милая), да простит меня господь!
 DJoKeR777 нравится это.
Не в сети
Профиль  
 Добавлено: 2014-06-02 23:37 (спустя 2 дня 2 часа)
Стаж: 3 года 10 месяцев
Сообщений: 187
Лайков: 61
Только недавно закончили просмотр данного фильма.
Фильм интересный и увлекательный. Советую к просмотру! Тем более в нём снимается такая красивая актриса, как Джулианна Мур - рыжая бестия, которой 53 года, но привлекает она не меньше, чем куда более юнные актрисы.
Не в сети
Профиль  
 Добавлено: 2014-06-03 23:13 (спустя 23 часа)
Аватара пользователя
Стаж: 8 лет 8 месяцев
Возраст: 36
Сообщений: 319
Спасибок: 620
Лайков: 16
нормальный фильм, Лайам Нисон отлично играет роль воздушного маршала. Перевод такой каким мы привыкли слышать ГГ
Не в сети
Профиль  
 Добавлено: 2014-06-13 16:16 (спустя 9 дней)
Стаж: 8 лет 5 месяцев
Сообщений: 6
Норм фильм-рекомендую к просмотру.
Не в сети
Профиль  
Начать новую темуОтветить на тему  [ Сообщений: 11 ] 
Вы не можете начинать темы
Вы не можете отвечать на сообщения
Вы не можете редактировать свои сообщения
Вы не можете удалять свои сообщения