Правила форума

  • В этом разделе создание новых тем Запрещено.
  • Для создания новых тем пользуйтесь Корневым разделом DVD и HD фильмы.
Начать новую темуОтветить на тему  [ Сообщений: 2 ] 
Торрент файл
Размер: 5.63 GB • Зарегистрирован: 3 года 7 месяцев • Статус: Проверено
Скачан: 141 раз • Желающих скачать: 0 • Поблагодарили: 32 раза
 Раздают: 0  |  0 KB/s  ]   Качают: 0  |  0 KB/s  ] 
 Полного источника не было 1 год 1 месяц 
Сообщения
 Добавлено: 2013-04-22 13:52
Аватара пользователя
Стаж: 9 лет 1 месяц
Сообщений: 7986
Спасибок: 122220
Лайков: 1191
Возвращение героя / The Last Stand

«Спокойная жизнь не для него»

Изображение


Год выпуска: 2013
Страна: Изображение США
Жанр: боевик, триллер, криминал
Продолжительность: 01:47:03
Субтитры: Русские
Перевод: Профессиональный (полное дублирование) [Лицензия]


Режиссер: Ким Чжи Ун
Сценарий: Эндрю Кнауэр
Продюсер: Лоренцо Ди Бонавентура, Эдвард Фи, Мики Ли, Майкл Пасернек, Хернани Перла
Оператор: Джи-ён Ким
Композитор: Моуг

В ролях: Арнольд Шварценеггер, Форест Уитакер, Джонни Ноксвил, Родриго Санторо, Джейми Александр, Луис Гузман, Эдуардо Норьега, Петер Стормаре, Зэк Гилфорд, Генезис Родригез, Сонни Лэндэм, Гарри Дин Стэнтон

Описание: Самая опасная и жестокая банда наркоторговцев сбегает из-под конвоя ФБР. Прихватив заложника, они мчатся к мексиканской границе на бронированной, оснащенной первоклассным вооружением машине. У них на пути стоит лишь тихий городок, за порядком в котором следит шериф Оуенс. Когда-то он был одним из лучших полицейских Лос-Анджелеса, теперь он вернулся.

Изображение Изображение

Раздача группы: Изображение

Качество: BDRip (720p)
Формат: Matroska
Видео: MPEG-4 AVC, 4358 Кбит/с, 1280x536
Аудио №1: Русский (DTS, 48,0 КГц, 6 ch, 1510 Кбит/c)
Аудио №2: Английский (DTS, 48,0 КГц, 6 ch, 1510 Кбит/c)

MediaInfo
Общее
Уникальный идентификатор : 228922789135154925847370520499832128883 (0xAC38ECEA9B250A4288D17117247A8573)
Полное имя : C:\Фильмы\The.Last.Stand.2012.D.BDRip.720p.R.G.Daredevil.mkv
Формат : Matroska
Версия формата : Version 4 / Version 2
Размер файла : 5,63 Гбайт
Продолжительность : 1 ч. 47 м.
Общий поток : 7527 Кбит/сек
Дата кодирования : UTC 2013-04-23 08:31:02
Программа кодирования : mkvmerge v6.1.0 ('Old Devil') built on Mar 2 2013 14:32:37
Библиотека кодирования : libebml v1.3.0 + libmatroska v1.4.0

Видео
Идентификатор : 1
Формат : AVC
Формат/Информация : Advanced Video Codec
Профиль формата : High@L4.1
Параметр CABAC формата : Да
Параметр ReFrames формата : 12 кадров
Идентификатор кодека : V_MPEG4/ISO/AVC
Продолжительность : 1 ч. 47 м.
Битрейт : 4359 Кбит/сек
Ширина : 1280 пикселей
Высота : 536 пикселей
Соотношение сторон : 2,40:1
Режим частоты кадров : Постоянный
Частота кадров : 24,000 кадра/сек
Цветовое пространство : YUV
Субдискретизация насыщенности : 4:2:0
Битовая глубина : 8 бит
Тип развёртки : Прогрессивная
Бит/(Пиксели*Кадры) : 0.265
Размер потока : 3,26 Гбайт (58%)
Заголовок : The.Last.Stand.2012.RUS.BluRay.DTS.x264-HDWinG
Библиотека кодирования : x264 core 130 r2273 b3065e6
Настройки программы : cabac=1 / ref=12 / deblock=1:-3:-3 / analyse=0x3:0x113 / me=umh / subme=10 / psy=1 / psy_rd=1.00:0.10 / mixed_ref=1 / me_range=32 / chroma_me=1 / trellis=2 / 8x8dct=1 / cqm=0 / deadzone=21,11 / fast_pskip=0 / chroma_qp_offset=-5 / threads=12 / lookahead_threads=1 / sliced_threads=0 / nr=0 / decimate=0 / interlaced=0 / bluray_compat=0 / constrained_intra=0 / bframes=6 / b_pyramid=2 / b_adapt=2 / b_bias=0 / direct=3 / weightb=1 / open_gop=0 / weightp=2 / keyint=250 / keyint_min=24 / scenecut=40 / intra_refresh=0 / rc_lookahead=40 / rc=crf / mbtree=0 / crf=17.0 / qcomp=0.60 / qpmin=0 / qpmax=69 / qpstep=4 / vbv_maxrate=40000 / vbv_bufsize=40000 / crf_max=0.0 / nal_hrd=none / ip_ratio=1.40 / pb_ratio=1.30 / aq=2:0.80
Язык : English
Default : Да
Forced : Да

Аудио #1
Идентификатор : 2
Формат : DTS
Формат/Информация : Digital Theater Systems
Режим : 16
Параметр Endianness формата : Big
Идентификатор кодека : A_DTS
Продолжительность : 1 ч. 47 м.
Вид битрейта : Постоянный
Битрейт : 1509 Кбит/сек
Каналы : 6 каналов
Расположение каналов : Front: L C R, Side: L R, LFE
Частота : 48,0 КГц
Битовая глубина : 16 бит
Метод сжатия : С потерями
Размер потока : 1,13 Гбайт (20%)
Заголовок : DTS 5.1 @ 1536 kbps - Dub, BD RUS
Язык : Russian
Default : Да
Forced : Да

Аудио #2
Идентификатор : 3
Формат : DTS
Формат/Информация : Digital Theater Systems
Режим : 16
Параметр Endianness формата : Big
Идентификатор кодека : A_DTS
Продолжительность : 1 ч. 47 м.
Вид битрейта : Постоянный
Битрейт : 1509 Кбит/сек
Каналы : 6 каналов
Расположение каналов : Front: L C R, Side: L R, LFE
Частота : 48,0 КГц
Битовая глубина : 16 бит
Метод сжатия : С потерями
Размер потока : 1,13 Гбайт (20%)
Заголовок : DTS 5.1 @ 1536 kbps
Язык : English
Default : Нет
Forced : Нет

Текст
Идентификатор : 4
Формат : UTF-8
Идентификатор кодека : S_TEXT/UTF8
Идентификатор кодека/Информация : UTF-8 Plain Text
Заголовок : BD
Язык : Russian
Default : Нет
Forced : Нет

Меню
00:00:00.000 : en:00:00:00.000
00:05:50.791 : en:00:05:50.791
00:13:07.375 : en:00:13:07.375
00:22:35.083 : en:00:22:35.083
00:32:58.791 : en:00:32:58.791
00:41:50.166 : en:00:41:50.166
00:48:05.750 : en:00:48:05.750
00:57:00.208 : en:00:57:00.208
01:07:55.291 : en:01:07:55.291
01:15:02.125 : en:01:15:02.125
01:22:42.458 : en:01:22:42.458
01:27:25.833 : en:01:27:25.833
Свернуть
Знаете ли вы, что...
Первая главная роль Арнольда Шварценеггера после фильма «Терминатор 3: Восстание машин» (2003).

Первый стих 28-й главы Книги притчей Соломоновых является девизом, выгравированным на мемориальной доске перед ратушей и офисом шерифа.

Когда Рэй Оуэнс ведет Chevrolet Camaro ZL1, то на подголовнике хорошо видны вышитые буквы SS. Но эти буквы от другой модели Camaro, и, соответственно, на подголовнике должно быть вышито ZL1.

Агент Митчелл упоминает, что Chevrolet Corvette ZR1 быстрее любого вертолета. Однако вертолет ФБР следит за ним с близкого расстояния и практически не отстает.

Свернуть
Скриншоты
Изображение
Изображение
Изображение
Изображение
Свернуть
Не в сети
Профиль  
 Добавлено: 2013-04-23 23:25 (спустя 1 день 9 часов)
Аватара пользователя
Стаж: 6 лет 7 месяцев
Возраст: 41
Сообщений: 28
Лайков: 3
Уважаю таких авторов 720р и DTS! :dan_ser:
Не в сети
Профиль  
Начать новую темуОтветить на тему  [ Сообщений: 2 ] 
Вы не можете начинать темы
Вы не можете отвечать на сообщения
Вы не можете редактировать свои сообщения
Вы не можете удалять свои сообщения
cron