Правила форума

  • В этом разделе создание новых тем Запрещено.
  • Для создания новых тем пользуйтесь Корневым разделом DVD и HD фильмы.
Начать новую темуОтветить на тему  [ 1 сообщение ] 
Торрент файл
Размер: 4.22 GB • Зарегистрирован: 4 года 5 месяцев • Статус: Проверено
Скачан: 73 раза • Желающих скачать: 0 • Поблагодарили: 9 раз
 Раздают: 0  |  0 KB/s  ]   Качают: 0  |  0 KB/s  ] 
 Полного источника не было 1 год 10 месяцев 
Сообщения
 Добавлено: 2012-06-25 06:28
Top-releaser
Аватара пользователя
Стаж: 6 лет 7 месяцев
Сообщений: 2078
Спасибок: 3229
Лайков: 9
Возвращение Супермена / Superman Returns

Изображение


Год выпуска: 2006
Страна: США
Жанр: фантастика, приключения
Продолжительность: 02:27:58
Перевод: Профессиональный (полное дублирование)

Режиссёр: Брайан Сингер
В ролях: Кевин Спэйси, Брэндон Рут, Кейт Босуорт, Джеймс Марсден, Фрэнк Ланджелла, Сэм Хантингтон, Эва Мари Сент, Паркер Поузи, Кэл Пенн, Стефан Бендер, Уорвик Янг, Пета Уилсон, Марлон Брандо
Описание: Возвратившись на Землю после своего многолетнего и загадочного отсутствия, Супермен обнаруживает, что его заклятый враг Лекс Лютор опять строит ему козни, а его возлюбленная Лоис Лэйн вроде бы уже устроила свою личную жизнь. Кроме того, Супермен понимает, что за то время, когда его не было, люди научились прекрасно обходиться без него. Чтобы защитить мир, который он любит, от катастрофических разрушений, Супермену приходится преодолевать огромные расстояния: он опускается в океанские глубины и поднимается на космические высоты…

Раздача группы: Изображение

Качество: HD-DVDRip
Формат: MKV
Видео кодек: H.264
Аудио кодек: AC3 (Dolby Digital)
Видео: MPEG4 1280x528 25.00fps~ 6042 Кбит/сек
Аудио #1: Dolby AC3 48000Hz 6ch ~ 384 Kbps

MediaInfo
Общее
Уникальный идентификатор : 184724944605376845174048704662694673645 (0x8AF8BAF04AF3B950B1F4F56652EA3CED)
Полное имя : D:\Возвращение Супермена\Vozvrashenie_Supermena.mkv
Формат : Matroska
Версия формата : Version 1
Размер файла : 4,22 Гбайт
Продолжительность : 2 ч. 27 м.
Общий поток : 4082 Кбит/сек
Дата кодирования : UTC 2007-02-04 23:28:18
Программа кодирования : mkvmerge v2.0.0 ('After The Rain Has Fallen') built on Jan 13 2007 19:58:56
Библиотека кодирования : libebml v0.7.7 + libmatroska v0.8.0

Видео
Идентификатор : 1
Формат : AVC
Формат/Информация : Advanced Video Codec
Профиль формата : High@L4.0
Параметр CABAC формата : Да
Параметр ReFrames формата : 8 кадров
Идентификатор кодека : V_MPEG4/ISO/AVC
Продолжительность : 2 ч. 27 м.
Битрейт : 3700 Кбит/сек
Ширина : 1280 пикселей
Высота : 528 пикселей
Соотношение сторон : 2,40:1
Частота кадров : 25,000 кадров/сек
Цветовое пространство : YUV
Субдискретизация насыщенности : 4:2:0
Битовая глубина : 8 бит
Тип развёртки : Прогрессивная
Бит/(Пиксели*Кадры) : 0.219
Размер потока : 3,74 Гбайт (89%)
Библиотека кодирования : x264 core 54 svn-620M
Настройки программы : cabac=1 / ref=5 / deblock=0:0:0 / analyse=0x3:0x133 / me=hex / subme=6 / brdo=1 / mixed_ref=1 / me_range=16 / chroma_me=1 / trellis=1 / 8x8dct=1 / cqm=0 / deadzone=21,11 / chroma_qp_offset=0 / threads=2 / nr=0 / decimate=1 / mbaff=0 / bframes=3 / b_pyramid=1 / b_adapt=1 / b_bias=0 / direct=3 / wpredb=1 / bime=1 / keyint=250 / keyint_min=25 / scenecut=40(pre) / rc=2pass / bitrate=3700 / ratetol=4.0 / rceq='blurCplx^(1-qComp)' / qcomp=0.60 / qpmin=10 / qpmax=51 / qpstep=4 / cplxblur=20.0 / qblur=0.5 / ip_ratio=1.40 / pb_ratio=1.30 / zones
Язык : English
Default : Да
Forced : Нет

Аудио
Идентификатор : 2
Формат : AC-3
Формат/Информация : Audio Coding 3
Расширение режима : CM (complete main)
Параметр Endianness формата : Big
Идентификатор кодека : A_AC3
Продолжительность : 2 ч. 27 м.
Вид битрейта : Постоянный
Битрейт : 384 Кбит/сек
Каналы : 6 каналов
Расположение каналов : Front: L C R, Side: L R, LFE
Частота : 48,0 КГц
Битовая глубина : 16 бит
Метод сжатия : С потерями
Размер потока : 406 Мбайт (9%)
Язык : Russian
Default : Да
Forced : Нет
Свернуть
Скриншоты
Изображение

Изображение

Изображение

Изображение
Свернуть
Не в сети
Профиль  
Начать новую темуОтветить на тему  [ 1 сообщение ] 
Вы не можете начинать темы
Вы не можете отвечать на сообщения
Вы не можете редактировать свои сообщения
Вы не можете удалять свои сообщения