Правила форума

  • В этом разделе создание новых тем Запрещено.
  • Для создания новых тем пользуйтесь Корневым разделом DVD и HD фильмы.
Начать новую темуОтветить на тему  [ 1 сообщение ] 
Торрент файл
Размер: 2.45 GB • Зарегистрирован: 3 года 10 месяцев • Статус: Проверено
Скачан: 6 раз • Желающих скачать: 0 • Поблагодарили: 5 раз
 Раздают: 0  |  0 KB/s  ]   Качают: 0  |  0 KB/s  ] 
 Полного источника не было 1 год 3 месяца 
Сообщения
 Добавлено: 2013-02-05 09:34
Аватара пользователя
Стаж: 8 лет 4 месяца
Сообщений: 100
Спасибок: 1653
Возвращение высокого блондина / Le retour du grand blond

Изображение


Год выпуска: 1974
Страна: Франция
Жанр: Комедия
Продолжительность: 01:19:34
Версия фильма: Unrated / Полная версия
Перевод: Профессиональный (двухголосый закадровый) + Профессиональный (дубляж) + Оригинальная звуковая дорожка
Субтитры: Нет

Режиссёр: Ив Робер
В ролях: Пьер Ришар, Жан Карме, Жан Рошфор, Мирей Дарк, Жан Буиз, Поль Ле Персон, Колетт Кастель, Анри Гибе, Эрве Санд, Жан Амос
Описание: Расследование по делу о смерти полковника Милана, одного из руководителей секретной службы, ведет новый министр. И полковник Тулуз опять вспоминает о высоком блондине Франсуа Перрене. И в результате его романтическое путешествие в Рио-де-Жанейро оборачивается смертельным и опасным приключением в духе Джеймса Бонда...
Доп.информация: Картинка гораздо лучше DVD, но есть мелкие "шумы".
Рейтинг MPAA: Рейтинг PG (Детям рекомендуется смотреть фильм с родителями)
Изображение 7.483 (3052)
Изображение 6.40 (1 301)

Качество: WEB-DL 720p
Формат: MKV
Видео кодек: MPEG-4 AVC
Аудио кодек: AC3 (Dolby Digital)
Видео: MPEG-4 AVC, 3900 Кбит/с, 1204x720, 24 fps
Аудио #1: Russian: 48 kHz, AC3, 2/0 (L,R) ch, ~192.00 kbps avg [Двухголосый закадровый, студия Инис]
Аудио #2: Russian: 48 kHz, AC3, 2/0 (L,R) ch, ~192.00 kbps avg [Профессиональный (дубляж)]
Аудио #3: French: 48 kHz, AAC, 2/0 (L,R) ch, ~160.00 kbps avg [Оригинальная звуковая дорожка]
Субтитры: Нет
Скриншоты
Изображение
Изображение
Изображение
Изображение
Изображение
Свернуть


Технические данные
General
Unique ID : 240432689909285330394579849837724333994 (0xB4E1A6D68146CBA8A453CC11CFC877AA)
Complete name : C:\GIA\Le Retour du grand blond 720p WEB-DL.mkv
Format : Matroska
Format version : Version 4 / Version 2
File size : 2.45 GiB
Duration : 1h 19mn
Overall bit rate : 4 409 Kbps
Movie name : Le Grand blond avec une chaussure noire (1973)
Encoded date : UTC 2010-02-22 21:41:31
Writing application : mkvmerge v5.9.0 ('On The Loose') built on Dec 9 2012 15:37:01
Writing library : libebml v1.3.0 + libmatroska v1.4.0

Video
ID : 1
Format : AVC
Format/Info : Advanced Video Codec
Format profile : High@L3.1
Format settings, CABAC : No
Format settings, ReFrames : 2 frames
Codec ID : V_MPEG4/ISO/AVC
Duration : 1h 19mn
Width : 1 204 pixels
Height : 720 pixels
Display aspect ratio : 1.672
Frame rate mode : Constant
Frame rate : 24.000 fps
Color space : YUV
Chroma subsampling : 4:2:0
Bit depth : 8 bits
Scan type : Progressive
Title : Release by xamster for HDCLUB
Language : French
Default : Yes
Forced : No
Color primaries : BT.709
Transfer characteristics : BT.709
Matrix coefficients : BT.709

Audio #1
ID : 2
Format : AC-3
Format/Info : Audio Coding 3
Format profile : Dolby Digital
Mode extension : CM (complete main)
Format settings, Endianness : Big
Codec ID : A_AC3
Duration : 1h 19mn
Bit rate mode : Constant
Bit rate : 192 Kbps
Channel(s) : 2 channels
Channel positions : Front: L R
Sampling rate : 48.0 KHz
Bit depth : 16 bits
Compression mode : Lossy
Stream size : 109 MiB (4%)
Title : AC3 48kHz 2.0 192 kbps DVO Inis
Language : Russian
Default : Yes
Forced : No

Audio #2
ID : 3
Format : AC-3
Format/Info : Audio Coding 3
Format profile : Dolby Digital
Mode extension : CM (complete main)
Format settings, Endianness : Big
Codec ID : A_AC3
Duration : 1h 19mn
Bit rate mode : Constant
Bit rate : 192 Kbps
Channel(s) : 2 channels
Channel positions : Front: L R
Sampling rate : 48.0 KHz
Bit depth : 16 bits
Compression mode : Lossy
Stream size : 109 MiB (4%)
Title : AC3 48kHz 2.0 192 kbps Dub
Language : Russian
Default : No
Forced : No

Audio #3
ID : 4
Format : AAC
Format/Info : Advanced Audio Codec
Format profile : LC
Codec ID : A_AAC
Duration : 1h 19mn
Channel(s) : 2 channels
Channel positions : Front: L R
Sampling rate : 48.0 KHz
Compression mode : Lossy
Title : AAC 2.0 VBR Original
Language : French
Default : No
Forced : No

Menu
00:00:00.000 : en:GГ©nГ©rique dГ©but
00:02:12.000 : en:Comment l'aventure commence
00:03:59.000 : en:Capitaine Cambrai
00:05:45.000 : en:Le grand bouc
00:10:42.000 : en:Il faut supprimer le grand blond
00:12:45.000 : en:La baraka du grand blond
00:18:45.000 : en:Les fausses funГ©railles
00:23:11.000 : en:On l'a eu !
00:26:29.000 : en:Changement de programme
00:32:11.000 : en:Un petit service
00:34:51.000 : en:Le grand blond avec une chaussure rouge
00:40:02.000 : en:Une mission dangereuse
00:42:11.000 : en:Notre hГ©ros est fatiguГ©
00:45:52.000 : en:Cambrai a peur du sang
00:48:26.000 : en:RГ©union de routine entre agents secrets
00:55:31.000 : en:Le Super-Agent
01:04:29.000 : en:Une suite imprГ©vue
01:08:47.000 : en:Couche-toi sur Paulette !
01:12:52.000 : en:Toulouse est demasquГ©
01:18:34.000 : en:GГ©nГ©rique de fin
Свернуть

Знаете ли Вы, что...
Так как в советское время многие фильмы нещадно кромсались цензорами, то некоторый эпизоды русского дубляжа переведены многоголосым переводом.
Свернуть
_________________
Входи тихо, проси мало, говори кратко, уходи быстро...
Не в сети
Профиль  
Начать новую темуОтветить на тему  [ 1 сообщение ] 
Вы не можете начинать темы
Вы не можете отвечать на сообщения
Вы не можете редактировать свои сообщения
Вы не можете удалять свои сообщения