Правила форума

  • В этом разделе создание новых тем Запрещено.
  • Для создания новых тем пользуйтесь Корневым разделом DVD и HD фильмы.
Начать новую темуОтветить на тему  [ Сообщений: 4 ] 
Торрент файл
Размер: 4.63 GB • Зарегистрирован: 5 лет 9 месяцев • Статус: Проверено
Скачан: 253 раза • Желающих скачать: 0 • Поблагодарили: 58 раз
 Раздают: 0  |  0 KB/s  ]   Качают: 0  |  0 KB/s  ] 
 Полного источника не было 4 месяца 
Сообщения
 Добавлено: 2011-03-02 00:56
Top-releaser
Аватара пользователя
Стаж: 6 лет 11 месяцев
Возраст: 45
Сообщений: 299
Спасибок: 4106
Лайков: 3
Впритык / Due Date
«Когда всё через...»

Изображение

Год выпуска: 2010
Страна: США
Жанр: комедия
Продолжительность: 01:35:16
Перевод: Профессиональный (полное дублирование)[лицензия]

Режиссер: Тодд Филлипс / Todd Phillips
Сценарий: Алан Р. Коэн / Alan R. Cohen, Алан Фрилэнд / Alan Freedland, Адам Щтикель / Adam Sztykiel, Тодд Филлипс / Todd Phillips
Продюсер: Дэниэл Голдберг / Daniel Goldberg, Тодд Филлипс / Todd Phillips, Скотт Будник / Scott Budnick, Сьюзен Дауни / Susan Downey, Джозеф Гарнер / Joseph Garner
Оператор: Ларри Шер / Lawrence Sher
Композитор: Кристоф Бек / Christophe Beck

В ролях: Роберт Дауни мл. (Peter Highman,), Зак Галифианакис (Ethan Tremblay / Ethan Chase), Мишель Монахэн (Sarah Highman), Джейми Фокс (Darryl), Джульетт Льюис (Heidi), Дэнни МакБрайд (Lonnie), РЗА (Airport Screener), Мэтт Уолш (TSA Agent), Броди Стивенс (Limo Driver), Джейкоб Ульрих (Patrick), Naiia Ulrich (Alex), Тодд Филлипс (Barry)
Описание: Питер готовится стать отцом и находится на грани нервного срыва. И его нервам не идет на пользу тот факт, что ему предстоит предпринять целое путешествие, да еще и в компании честолюбивого актера, чтобы успеть добраться домой к рождению собственного ребенка.

Изображение
Бюджет: $65 000 000
Сборы в США: $100 539 043
Сборы в России: $7 393 836
Сборы в мире: $206 347 043
Мировая премьера: 31 октября 2010
Релиз на DVD: 3 марта 2011, «CP-Digital»
Релиз на Blu-ray: 3 марта 2011, «CP-Digital»
Изображение

MPAA: Изображение - Лицам до 17 лет обязательно присутствие взрослого
Качество: BDRip, 720p
Формат: Matroska
Видео: AVC; 1280x534 (2.35:1); 5789 Kbps; 23,976 fps; 0,353 bpp
Аудио №1: Russian; AC3; 48 KHz; 384 Kbps; CBR; 6 ch; [Профессиональный (полное дублирование)]
Аудио №2: English; AC3; 48 KHz; 640 Kbps; CBR; 6 ch; [Original]
Субтитры №1: Russian
Субтитры №2: Russian
Субтитры №3: English

Раздача:Изображение

"MediaInfo"

Общее
Уникальный идентификатор : 212923731043706964390881645734355323258 (0xA02F9E736D41A4369001F2AEDCD4C97A)
Полное имя :Впритык (Due Date) [2010, BDRip 720р].mkv
Формат : Matroska
Размер файла : 4,63 Гбайт
Продолжительность : 1 ч. 35 м.
Общий поток : 6952 Кбит/сек
Название фильма : Впритык / Due Date (2010) .....:::UNIONGANG:::.....
Дата кодирования : UTC 2011-03-01 19:37:08
Программа кодирования : mkvmerge v3.4.0 ('Rapunzel') сборка от May 15 2010 09:38:20
Библиотека кодирования : libebml v0.8.0 + libmatroska v0.9.0

Видео
Идентификатор : 1
Формат : AVC
Формат/Информация : Advanced Video Codec
Профиль формата : High@L4.1
Параметр CABAC формата : Да
Параметр ReFrames формата : 11 кадры
Идентификатор кодека : V_MPEG4/ISO/AVC
Продолжительность : 1 ч. 35 м.
Битрейт : 5931 Кбит/сек
Ширина : 1280 пикс.
Высота : 534 пикс.
Соотношение сторон : 2,35:1
Частота кадров : 23,976 кадр/сек
Цветовое пространство : YUV
Подвыборка цветности : 4:2:0
Битовая глубина : 8 бит
Тип развёртки : Прогрессивная
Бит/(Пиксели*Кадры) : 0.362
Размер потока : 3,85 Гбайт (83%)
Заголовок : Due.Date.2010.D.BDRip.720p.[uniongang.tv]
Библиотека кодирования : x264 core 114 r1913 5fd3dce
Настройки программы : cabac=1 / ref=11 / deblock=1:-3:-3 / analyse=0x3:0x133 / me=umh / subme=10 / psy=1 / psy_rd=0.95:0.00 / mixed_ref=1 / me_range=24 / chroma_me=1 / trellis=2 / 8x8dct=1 / cqm=0 / deadzone=21,11 / fast_pskip=0 / chroma_qp_offset=-2 / threads=6 / sliced_threads=0 / nr=0 / decimate=1 / interlaced=0 / constrained_intra=0 / bframes=6 / b_pyramid=2 / b_adapt=2 / b_bias=0 / direct=3 / weightb=1 / open_gop=0 / weightp=2 / keyint=250 / keyint_min=23 / scenecut=40 / intra_refresh=0 / rc_lookahead=60 / rc=2pass / mbtree=0 / bitrate=5931 / ratetol=1.0 / qcomp=0.60 / qpmin=10 / qpmax=51 / qpstep=4 / cplxblur=20.0 / qblur=0.5 / vbv_maxrate=50000 / vbv_bufsize=50000 / nal_hrd=none / ip_ratio=1.40 / pb_ratio=1.30 / aq=1:0.80
Язык : English

Аудио #1
Идентификатор : 2
Формат : AC-3
Формат/Информация : Audio Coding 3
Расширение режима : CM (complete main)
Идентификатор кодека : A_AC3
Продолжительность : 1 ч. 35 м.
Вид битрейта : Постоянный
Битрейт : 384 Кбит/сек
Канал(ы) : 6 канала(ов)
Расположение каналов : Front: L C R, Side: L R, LFE
Частота : 48,0 КГц
Битовая глубина : 16 бит
Метод сжатия : С потерями
Размер потока : 262 Мбайт (6%)
Заголовок : AC3 5.1 @ 384 kb/s [Russian DUB R5]
Язык : Russian

Аудио #2
Идентификатор : 3
Формат : AC-3
Формат/Информация : Audio Coding 3
Расширение режима : CM (complete main)
Идентификатор кодека : A_AC3
Продолжительность : 1 ч. 35 м.
Вид битрейта : Постоянный
Битрейт : 640 Кбит/сек
Канал(ы) : 6 канала(ов)
Расположение каналов : Front: L C R, Side: L R, LFE
Частота : 48,0 КГц
Битовая глубина : 16 бит
Метод сжатия : С потерями
Размер потока : 436 Мбайт (9%)
Заголовок : AC3 5.1 @ 640 kb/s [English]
Язык : English

Текст #1
Идентификатор : 4
Формат : UTF-8
Идентификатор кодека : S_TEXT/UTF8
Идентификатор кодека/Информация : UTF-8 Plain Text
Заголовок : Russian SUB [Full]
Язык : Russian

Текст #2
Идентификатор : 5
Формат : UTF-8
Идентификатор кодека : S_TEXT/UTF8
Идентификатор кодека/Информация : UTF-8 Plain Text
Заголовок : Russian SUB [Forced]
Язык : Russian

Текст #3
Идентификатор : 6
Формат : UTF-8
Идентификатор кодека : S_TEXT/UTF8
Идентификатор кодека/Информация : UTF-8 Plain Text
Заголовок : English SUB [Full]
Язык : English

Меню
00:00:00.000 : en:00:00:00.000
00:09:58.056 : en:00:09:58.056
00:18:37.158 : en:00:18:37.158
00:30:19.943 : en:00:30:19.943
00:40:59.415 : en:00:40:59.415
00:50:43.457 : en:00:50:43.457
00:58:39.808 : en:00:58:39.808
01:08:47.790 : en:01:08:47.790
01:18:34.418 : en:01:18:34.418
01:28:30.555 : en:01:28:30.555
Свернуть
Изображение
"Скриншоты"

Изображение
Изображение
Изображение
Изображение
Изображение
Изображение
Изображение
Изображение
Свернуть
"Знаете ли Вы, что..."
  • Белый французский бульдог появляется и в фильме «Впритык» (2010) и в «Мальчишник в Вегасе» (2009), однако это не один и тот же пес. Скотт Будник является исполнительным продюсером обоих фильмов и владельцем французских бульдогов.
  • Черный пикап, который ведет Деррил (персонаж Джейми Фокса), это Dodge Warlock, который производился только в период с 1976 до 1979 год.
  • В кинотеатры фильм привозили под кодовым названием «Maternity Day» (День материнства).
Свернуть


Последний раз редактировалось VVVDDD 2011-03-02 17:48, всего редактировалось 2 раз(а).
Не в сети
Профиль  
 Добавлено: 2011-03-02 01:21 (спустя 25 минут)
Аватара пользователя
Стаж: 8 лет
Возраст: 23
Сообщений: 2472
Спасибок: 27962
Лайков: 2

VVVDDD:

Релиз:Изображение
уверен?
_________________
Изображение

Изображение
Не в сети
Профиль  
 Добавлено: 2013-08-31 16:04 (спустя 2 года 5 месяцев)
Стаж: 6 лет 9 месяцев
Сообщений: 33
Спасибок: 3
Хорошая комедия! Сначала было скучновато, но чем дальше - тем веселей. Местами, правда, присутствует черный юмор.
Не в сети
Профиль  
 Добавлено: 2014-10-04 22:16 (спустя 1 год 1 месяц)
Стаж: 7 лет 5 месяцев
Сообщений: 8
Абалденный фильм=)
Не в сети
Профиль  
Начать новую темуОтветить на тему  [ Сообщений: 4 ] 
Вы не можете начинать темы
Вы не можете отвечать на сообщения
Вы не можете редактировать свои сообщения
Вы не можете удалять свои сообщения