Правила форума

  • В этом разделе создание новых тем Запрещено.
  • Для создания новых тем пользуйтесь Корневым разделом DVD и HD фильмы.
Начать новую темуОтветить на тему  [ Сообщений: 2 ] 
Торрент файл
Размер: 7.18 GB • Зарегистрирован: 5 лет 8 месяцев • Статус: Проверено
Скачан: 43 раза • Желающих скачать: 0 • Поблагодарили: 8 раз
 Раздают: 0  |  0 KB/s  ]   Качают: 0  |  0 KB/s  ] 
 Полного источника не было 2 месяца 12 дней 
Сообщения
 Добавлено: 2011-04-01 09:27
Модератор
Аватара пользователя
Стаж: 8 лет 1 месяц
Сообщений: 1991
Спасибок: 129866
Лайков: 20
Враг мой / Enemy Mine


«Он друг или враг?»



Изображение

Год выпуска: 1985
Страна: США
Жанр: фантастика, боевик, драма, приключения]

Перевод: Профессиональный (полное дублирование)

Режиссер: Вольфганг Петерсен
Сценарий: Барри Лонгиер, Эдвард Хмара
Продюсер: Стефен Дж. Фридман, Стэнли О’Тул
Оператор: Тони Айми
Композитор: Морис Жарр

В ролях:
Деннис Куэйд (Willis Davidge), Луис Госсет мл. (Jeriba 'Jerry' Shigan), Брайон Джеймс (Stubbs), Ричард Маркус (Arnold), Кэролин МакКормик (Morse), Бампер Робинсон (Zammis), Джим Мапп (Old Drac), Лэнс Кервин (Joey Wooster), Скотт Крафт (Jonathan), Лу Майклс (Wilson), Энди Гир (Bates), Henry Stolow (Cates)
Дублёры: Вадим Ледогоров (Willis Davidge) (Willis Davidge), Борис Быстров (Jeriba 'Jerry' Shigan) (Jeriba 'Jerry' Shigan), Александр Рыжков (Joey Wooster) (Joey Wooster)

Описание: В глубинах нашей галактики, на огромном расстоянии от Земли люди ведут кровопролитную войну с расой рептилий. Войну, которой Земля отдает последние силы, войну на полное уничтожение.
В одной из жестоких схваток в окрестностях гористой планеты в системе двойной звезды пилот Виллис Дэвидж сбивает машину чужого, но тут же получает несколько попаданий и выходит из боя.
Единственное место, где можно выжить после падения - та самая планета. Но упав, он обнаруживает, что сбитый им чужой не погиб. Смертельные враги оказываются заперты в одной клетке, и выбор прост - уничтожить друг друга или заключить перемирие и попытаться спастись.
Что окажется сильнее: желание жить или ненависть и боль за погибших?


Изображение: 7.794 (2 552)
Изображение: 6.60 (12 245)

MPAA: Изображение - Детям до 13 лет просмотр не желателен

Доп. Информация

Бюджет: $33 000 000
Сборы в США: $12 303 411
Мировая премьера: 12 декабря 1985
Изображение Релиз на DVD: 25 сентября 2008, «Двадцатый Век Фокс СНГ»

Свернуть

Качество: HDTVRip 1080i

Формат: BDAV
Видео: AVC; 1920x1080 (16:9); 7516 Kbps; 25 fps; Interlaced (Top Field First); 0,145 bpp
Аудио №1: Russian / / ; AC3; 384 Kbps; CBR; 6 ch Дубляж с многоголосыми вставками
Аудио №2: Russian / / ; AC3; 448 Kbps; CBR; 6 ch MVO
Аудио №3: Russian / / ; AC3; 384 Kbps; CBR; 4 ch Живов
Аудио №4: English / / ; AC3; 384 Kbps; CBR; 4 ch
Аудио №5: English / / ; AC3; 384 Kbps; CBR; 2 ch
Субтитры №1: Russian / /
Субтитры №2: English / /



Знаете ли Вы, что...
  • Прямо перед нападением существа на его ногу, Дэвидж поёт песню «Полуночный экспресс».
  • Фильм был очень популярен в бывшем Советском Союзе, так как он был в первой волне американских фильмов, легально разрешённых к показу. «Враг мой» был афиширован как первый американский фильм ужасов и имел огромный успех.
  • «Враг мой» вдохновил на создание песни «Неразлучные враги» (Inseparable Enemies) группы Star One в альбоме Space Metal.
  • Актёры Куэйд и Луис Госсетт-младший ранее несколько лет вместе работали в фильме «Челюсти 3».
  • В начале фильма на пролетающем грузовом судне можно увидеть буквы BTA (Bilateral Terran Alliance — двусторонний земной альянс).
  • Действие фильма проходит с 2092 до 2096 гг. Ближе к концу фильма даты исчезновения и спасения Дэвиджа видны, когда высокопоставленный офицер просматривает его файл.
  • В том же 1985 году Лонгиер, в соавторстве с Дэвидом Герролдом, написал одноименный роман-новелизацию.
  • Озеро, возле которого происходит первая встреча человека и драка, было изготовлено для съемок фильма Петерсена «Лодка» (1981). Также при съемках «Врага моего» использовались декорации, сделанные для другого фильма Петерсена — «Бесконечная история» (1984).
  • У фильма мог быть более длинный финал. По-крайней мере, Петерсен отснял сцену, в которой Замус представляет Дэвиджа своим родственникам на родной планете.
  • На режиссерское место прочили Терри Гиллиама, но тот отказался, предпочтя поработать над собственным проектом — «Бразилией».
  • Во время сражения в начале фильма бортовой компьютер корабля драков показывает на мониторе структуру белка.
  • Первоначально фильм был снят на Вестманнаейаре (мелком островном архипелаге возле южного побережья Исландии). В результате трений между режиссером и продюсерами, проект был закрыт. Через год Петерсен заново отснял весь фильм. Съемки проходили на баварской киностудии (г.Мюнхен. Часть декораций сохранилась до сих пор, их можно увидеть во время экскурсии по киностудии), но некоторые сцены были отсняты на пленэре — на одном из Канарских островов (вулканические ландшафты и зеленое озеро. Эти пейзажи можно увидеть, посетив национальный парк в Ланзароте).
  • Луи Госсет, сыгравший инопланетянина, сам придумал странный «акцент». Он полоскал слюну в горле так, как это делают грудные дети.
Свернуть
BDInfo

General
ID : 1
Complete name : Enemy.Mine.1985.h264.1080i.dd2.0\BDMV\STREAM\00000.m2ts
Format : BDAV
Format/Info : Blu-ray Video
File size : 7.18 GiB
Duration : 1h 43mn
Overall bit rate : 9 914 Kbps
Maximum Overall bit rate : 35.5 Mbps


Video
ID : 4113 (0x1011)
Menu ID : 1 (0x1)
Format : AVC
Format/Info : Advanced Video Codec
Format profile : Main@L4.0
Format settings, CABAC : Yes
Format settings, ReFrames : 4 frames
Duration : 1h 43mn
Bit rate mode : Variable
Bit rate : 7 517 Kbps
Maximum bit rate : 40.0 Mbps
Width : 1 920 pixels
Height : 1 080 pixels
Display aspect ratio : 16:9
Frame rate : 25.000 fps
Resolution : 8 bits
Colorimetry : 4:2:0
Scan type : Interlaced
Scan order : Top Field First
Bits/(Pixel*Frame) : 0.145
Stream size : 5.44 GiB (76%)
Color primaries : BT.709-5, BT.1361, IEC 61966-2-4, SMPTE RP177
Transfer characteristics : BT.709-5, BT.1361
Matrix coefficients : BT.709-5, BT.1361, IEC 61966-2-4 709, SMPTE RP177


Audio #1
ID : 4352 (0x1100)
Menu ID : 1 (0x1)
Format : AC-3
Format/Info : Audio Coding 3
Format_Settings_ModeExtension : CM (complete main)
Duration : 1h 43mn
Bit rate mode : Constant
Bit rate : 384 Kbps
Channel(s) : 6 channels
Channel positions : Front: L C R, Side: L R, LFE
Sampling rate : 48.0 KHz
Stream size : 285 MiB (4%)
Language : Russian


Audio #2
ID : 4353 (0x1101)
Menu ID : 1 (0x1)
Format : AC-3
Format/Info : Audio Coding 3
Format_Settings_ModeExtension : CM (complete main)
Duration : 1h 43mn
Bit rate mode : Constant
Bit rate : 448 Kbps
Channel(s) : 6 channels
Channel positions : Front: L C R, Side: L R, LFE
Sampling rate : 48.0 KHz
Stream size : 332 MiB (5%)
Language : Russian


Audio #3
ID : 4354 (0x1102)
Menu ID : 1 (0x1)
Format : AC-3
Format/Info : Audio Coding 3
Format_Settings_ModeExtension : CM (complete main)
Duration : 1h 43mn
Bit rate mode : Constant
Bit rate : 384 Kbps
Channel(s) : 4 channels
Channel positions : Front: L C R, Side: C
Sampling rate : 48.0 KHz
Stream size : 285 MiB (4%)
Language : Russian


Audio #4
ID : 4355 (0x1103)
Menu ID : 1 (0x1)
Format : AC-3
Format/Info : Audio Coding 3
Format_Settings_ModeExtension : CM (complete main)
Duration : 1h 43mn
Bit rate mode : Constant
Bit rate : 384 Kbps
Channel(s) : 4 channels
Channel positions : Front: L C R, Side: C
Sampling rate : 48.0 KHz
Stream size : 285 MiB (4%)
Language : English


Audio #5
ID : 4356 (0x1104)
Menu ID : 1 (0x1)
Format : AC-3
Format/Info : Audio Coding 3
Format profile : Dolby Digital
Format_Settings_ModeExtension : CM (complete main)
Duration : 1h 43mn
Bit rate mode : Constant
Bit rate : 384 Kbps
Channel(s) : 2 channels
Channel positions : Front: L R
Sampling rate : 48.0 KHz
Video delay : 50ms
Stream size : 285 MiB (4%)
Language : English


Text #1
ID : 4608 (0x1200)
Menu ID : 1 (0x1)
Format : PGS
Language : Russian


Text #2
ID : 4609 (0x1201)
Menu ID : 1 (0x1)
Format : PGS
Language : English
Свернуть
Скриншоты

Изображение
Изображение
Изображение
Изображение
Изображение
Свернуть

_________________
Себе ты можешь не качать, но раздавать другим обязан!
Не в сети
Профиль  
 Добавлено: 2011-04-17 08:15 (спустя 15 дней)
Стаж: 7 лет 3 месяца
Возраст: 33
Сообщений: 194
Лайков: 6
Фильм смотрел раньше на VHS-достойная вещь, можно посмотреть не один раз, не многие этим похвастать могут, респект за релиз :ya_hoo_oo:
Не в сети
Профиль  
Начать новую темуОтветить на тему  [ Сообщений: 2 ] 
Вы не можете начинать темы
Вы не можете отвечать на сообщения
Вы не можете редактировать свои сообщения
Вы не можете удалять свои сообщения