Правила форума

  • В этом разделе создание новых тем Запрещено.
  • Для создания новых тем пользуйтесь Корневым разделом DVD и HD фильмы.
Начать новую темуОтветить на тему  [ 1 сообщение ] 
Торрент файл
Размер: 3.72 GB • Зарегистрирован: 1 год 1 месяц • Статус: Проверено
Скачан: 39 раз • Желающих скачать: 0 • Поблагодарили: 4 раза
 Раздают: 0  |  0 KB/s  ]   Качают: 0  |  0 KB/s  ] 
 Полного источника не было 2 часа 22 минуты 
Сообщения
 Добавлено: 2015-10-25 18:12
RG-ELEKTRO
Аватара пользователя
Стаж: 2 года 3 месяца
Сообщений: 7928
Спасибок: 53761
Лайков: 3304
Врата тьмы / Pay the Ghost


Изображение


Год выпуска: 2015
Страна: США (Midnight Kitchen Productions, Voltage Films)
Жанр: ужасы, триллер
Продолжительность: 01:34:06
Перевод: Дублированный [iTunes]

Режиссёр: Ули Эдель
В ролях: Николас Кейдж, Сара Уэйн Кэллис, Алекс Маллари мл., Вероника Феррес, Лайрик Бент, Джек Фултон, София Уэллс, Элизабет Джинн ле Ру, Эрин Бойес, Хо Чоу
Описание: Существует древнее поверье, что раз в год, на Хэллоуин, открываются врата между миром живых и миром мертвых. В этот день зло практически всесильно…

Во время ночного праздничного парада в Нью-Йорке у профессора Майка Кола бесследно пропадает его маленький сын. Полиции не удается найти ребенка, однако после собственного расследования отец узнает, что некое мощное древнее проклятие забирает детей каждый год. Чтобы вернуть себе своего сына, у него есть только один шанс — в ночь на Хэллоуин отправиться по ту сторону врат тьмы….

Изображение Изображение
Изображение
Качество: BDRip 720p
Формат: MKV
Видео кодек: MPEG-4 AVC
Аудио кодек: AC3
Видео: MPEG-4 AVC, 1280x534 (2.35:1), 23.976 fps, 4 714 Kbps (0.288 bit/pixel)
Аудио #1: AC3, 384 kb/s (6 ch) [Дублированный (iTunes)]
Аудио #2: English: AC3, 384 kb/s (6 ch)
Субтитры: English

"MI"
Формат : Matroska
Версия формата : Version 2
Размер файла : 3,72 Гбайт
Продолжительность : 1 ч. 34 м.
Общий поток : 5659 Кбит/сек
Название фильма : Pay the Ghost (2015) BDRip 720p Rip by FAGOT100
Дата кодирования : UTC 2015-10-25 03:33:37
Программа кодирования : mkvmerge v5.3.0 ('I could have danced') built on Feb 9 2012 10:38:07
Библиотека кодирования : libebml v1.2.3 + libmatroska v1.3.0
Attachment : Yes

Видео
Идентификатор : 1
Формат : AVC
Формат/Информация : Advanced Video Codec
Профиль формата : High@L4.1
Параметр CABAC формата : Да
Параметр ReFrames формата : 10 кадров
Идентификатор кодека : V_MPEG4/ISO/AVC
Продолжительность : 1 ч. 34 м.
Битрейт : 4714 Кбит/сек
Ширина : 1280 пикселей
Высота : 534 пикселя
Соотношение сторон : 2,40:1
Режим частоты кадров : Постоянный
Частота кадров : 23,976 кадра/сек
Цветовое пространство : YUV
Субдискретизация насыщенности : 4:2:0
Битовая глубина : 8 бит
Тип развёртки : Прогрессивная
Бит/(Пиксели*Кадры) : 0.288
Размер потока : 3,10 Гбайт (83%)
Библиотека кодирования : x264 core 146 r2538 121396c
Настройки программы : cabac=1 / ref=10 / deblock=1:-3:-3 / analyse=0x3:0x133 / me=umh / subme=11 / psy=1 / psy_rd=1.00:0.00 / mixed_ref=1 / me_range=32 / chroma_me=1 / trellis=2 / 8x8dct=1 / cqm=0 / deadzone=21,11 / fast_pskip=0 / chroma_qp_offset=-2 / threads=12 / lookahead_threads=2 / sliced_threads=0 / nr=0 / decimate=0 / interlaced=0 / bluray_compat=0 / constrained_intra=0 / bframes=8 / b_pyramid=2 / b_adapt=2 / b_bias=0 / direct=3 / weightb=1 / open_gop=0 / weightp=2 / keyint=240 / keyint_min=23 / scenecut=40 / intra_refresh=0 / rc=crf / mbtree=0 / crf=17.0 / qcomp=0.60 / qpmin=0 / qpmax=69 / qpstep=4 / ip_ratio=1.40 / pb_ratio=1.30 / aq=1:0.70
Язык : English
Default : Да
Forced : Нет

Аудио #1
Идентификатор : 2
Формат : AC-3
Формат/Информация : Audio Coding 3
Расширение режима : CM (complete main)
Параметр Endianness формата : Big
Идентификатор кодека : A_AC3
Продолжительность : 1 ч. 34 м.
Вид битрейта : Постоянный
Битрейт : 384 Кбит/сек
Каналы : 6 каналов
Расположение каналов : Front: L C R, Side: L R, LFE
Частота : 48,0 КГц
Битовая глубина : 16 бит
Метод сжатия : С потерями
Задержка видео : 6 с. 900 мс.
Размер потока : 258 Мбайт (7%)
Заголовок : Дублированный
Язык : Russian
Default : Да
Forced : Нет

Аудио #2
Идентификатор : 3
Формат : AC-3
Формат/Информация : Audio Coding 3
Расширение режима : CM (complete main)
Параметр Endianness формата : Big
Идентификатор кодека : A_AC3
Продолжительность : 1 ч. 34 м.
Вид битрейта : Постоянный
Битрейт : 448 Кбит/сек
Каналы : 6 каналов
Расположение каналов : Front: L C R, Side: L R, LFE
Частота : 48,0 КГц
Битовая глубина : 16 бит
Метод сжатия : С потерями
Размер потока : 302 Мбайт (8%)
Язык : English
Default : Нет
Forced : Нет

Текст
Идентификатор : 4
Формат : UTF-8
Идентификатор кодека : S_TEXT/UTF8
Идентификатор кодека/Информация : UTF-8 Plain Text
Язык : English
Default : Да
Forced : Нет

Меню
00:00:00.000 : :Chapter 01
00:07:42.628 : :Chapter 02
00:15:03.694 : :Chapter 03
00:25:59.307 : :Chapter 04
00:31:40.481 : :Chapter 05
00:38:20.089 : :Chapter 06
00:48:40.751 : :Chapter 07
00:58:50.527 : :Chapter 08
01:06:41.539 : :Chapter 09
01:12:39.063 : :Chapter 10
01:16:41.847 : :Chapter 11
01:28:33.558 : :Chapter 12
Свернуть

Скриншоты
Изображение
Изображение
Изображение
Свернуть
Изображение


Изображение Изображение
_________________
Не ищите меня в "ВКонтакте", в "Одноклассниках" меня нет - я на трекерах сижу!
Не в сети
Профиль  
Начать новую темуОтветить на тему  [ 1 сообщение ] 
Вы не можете начинать темы
Вы не можете отвечать на сообщения
Вы не можете редактировать свои сообщения
Вы не можете удалять свои сообщения