Правила форума

  • В этом разделе создание новых тем Запрещено.
  • Для создания новых тем пользуйтесь Корневым разделом DVD и HD фильмы.
Начать новую темуОтветить на тему  [ Сообщений: 4 ] 
Торрент файл
Размер: 4.37 GB • Зарегистрирован: 4 года 9 месяцев • Статус: Проверено
Скачан: 319 раз • Желающих скачать: 0 • Поблагодарили: 47 раз
 Раздают: 1  |  0 KB/s  ]   Качают: 0  |  0 KB/s  ] 
Сообщения
 Добавлено: 2012-03-01 17:18
Книголюб
Аватара пользователя
Стаж: 7 лет 2 месяца
Сообщений: 2823
Спасибок: 48823
Лайков: 73
Время
In Time

Изображение


Год выпуска: 2011
Страна: США
Слоган: «Живи вечно или умри, пытаясь»
Жанр: фантастика, триллер, драма, мелодрама, криминал
Продолжительность: 01:41:46
Перевод: Профессиональный (многоголосый закадровый)

Режиссёр: Эндрю Никкол
В ролях: Джастин Тимберлэйк, Аманда Сайфред, Алекс Петтифер, Киллиан Мёрфи, Оливия Уайлд, Шайло Оствальд, Джонни Галэки, Колин МакГерк, Уилл Харрис, Майкл Уильям Фриман, Мэтт Бомер
Описание: Добро пожаловать в мир, где время стало единственной и самой твердой валютой, где люди генетически запрограммированы так, что в 25 лет перестают стареть. Правда, последующие годы стоят денег. И вот богатые становятся практически бессмертными, а бедные, как всегда, обречены сражаться за жизнь.

Уилл, бунтарь из гетто, несправедливо обвинен в убийстве с целью грабежа времени и вынужден, захватив заложницу, пуститься в бега. Так, ежеминутно рискуя жизнью, эти двое становятся грозным оружием в борьбе с системой. Но вот вопрос: кто кого? А может быть, в дело вмешается третья сила?..
Рейтинг MPAA: Рейтинг PG-13 (Дети до 13 лет допускаются на фильм только с родителями)
Мировая премьера: 30 сентября 2011
Премьера в России: 27 октября 2011, «Двадцатый Век Фокс СНГ»
Бюджет: $40 000 000

Качество: BQRip.1080p
Формат: DVD Video
Видео кодек: MPEG2
Аудио кодек: AC3 (Dolby Digital)
Видео: 1920x816 (2,35:1), 23.976 fps, 4832 kbps 0.129Bits/Pixel
Аудио #1: 6 ch, 448 kbps (Rus)
Аудио #2: 6 ch, 448 kbps (Eng)
MediaInfo
General
Unique ID : 253973196536947803731363279841198765319 (0xBF11755B8D5AF8A4B206597ADE227507)
Complete name : D:\In.Time.2011.BDRip.1080p.Rus.Eng.mkv
Format : Matroska
Format version : Version 2
File size : 4.37 GiB
Duration : 1h 49mn
Overall bit rate : 5 730 Kbps
Movie name : Время / In Time (2011)
Encoded date : UTC 2012-01-27 03:47:04
Writing application : mkvmerge v4.0.0 ('The Stars were mine') сборка от Jun 6 2010 16:18:42
Writing library : libebml v1.0.0 + libmatroska v1.0.0

Video
ID : 1
Format : AVC
Format/Info : Advanced Video Codec
Format profile : High@L4.1
Format settings, CABAC : Yes
Format settings, ReFrames : 5 frames
Codec ID : V_MPEG4/ISO/AVC
Duration : 1h 49mn
Bit rate : 4 832 Kbps
Width : 1 920 pixels
Height : 816 pixels
Display aspect ratio : 2.35:1
Frame rate : 23.976 fps
Color space : YUV
Chroma subsampling : 4:2:0
Bit depth : 8 bits
Scan type : Progressive
Bits/(Pixel*Frame) : 0.129
Stream size : 3.60 GiB (82%)
Title : Release by AlexKa
Writing library : x264 core 120 r2146 bcd41db
Encoding settings : cabac=1 / ref=5 / deblock=1:0:0 / analyse=0x3:0x133 / me=umh / subme=10 / psy=1 / psy_rd=1.00:0.10 / mixed_ref=1 / me_range=32 / chroma_me=1 / trellis=2 / 8x8dct=1 / cqm=0 / deadzone=21,11 / fast_pskip=0 / chroma_qp_offset=-3 / threads=12 / sliced_threads=0 / nr=0 / decimate=0 / interlaced=0 / bluray_compat=0 / constrained_intra=0 / bframes=5 / b_pyramid=2 / b_adapt=2 / b_bias=0 / direct=3 / weightb=1 / open_gop=0 / weightp=2 / keyint=240 / keyint_min=24 / scenecut=40 / intra_refresh=0 / rc_lookahead=60 / rc=2pass / mbtree=1 / bitrate=4832 / ratetol=1.0 / qcomp=0.60 / qpmin=0 / qpmax=69 / qpstep=4 / cplxblur=20.0 / qblur=0.5 / ip_ratio=1.40 / aq=1:1.00
Language : English
Default : No
Forced : No

Audio #1
ID : 2
Format : AC-3
Format/Info : Audio Coding 3
Mode extension : CM (complete main)
Codec ID : A_AC3
Duration : 1h 49mn
Bit rate mode : Constant
Bit rate : 448 Kbps
Channel(s) : 6 channels
Channel positions : Front: L C R, Side: L R, LFE
Sampling rate : 48.0 KHz
Bit depth : 16 bits
Compression mode : Lossy
Stream size : 350 MiB (8%)
Title : Rus
Language : Russian
Default : No
Forced : No

Audio #2
ID : 3
Format : AC-3
Format/Info : Audio Coding 3
Mode extension : CM (complete main)
Codec ID : A_AC3
Duration : 1h 49mn
Bit rate mode : Constant
Bit rate : 448 Kbps
Channel(s) : 6 channels
Channel positions : Front: L C R, Side: L R, LFE
Sampling rate : 48.0 KHz
Bit depth : 16 bits
Compression mode : Lossy
Stream size : 350 MiB (8%)
Title : Eng
Language : English
Default : No
Forced : No

Text #1
ID : 4
Format : UTF-8
Codec ID : S_TEXT/UTF8
Codec ID/Info : UTF-8 Plain Text
Title : Rus forced
Language : Russian
Default : Yes
Forced : Yes

Text #2
ID : 5
Format : UTF-8
Codec ID : S_TEXT/UTF8
Codec ID/Info : UTF-8 Plain Text
Title : Rus full
Language : Russian
Default : No
Forced : No

Text #3
ID : 6
Format : UTF-8
Codec ID : S_TEXT/UTF8
Codec ID/Info : UTF-8 Plain Text
Title : Eng
Language : English
Default : No
Forced : No

Menu
00:00:00.000 : :Chapter 01
00:05:54.270 : :Chapter 02
00:10:50.732 : :Chapter 03
00:18:58.095 : :Chapter 04
00:22:16.376 : :Chapter 05
00:25:30.445 : :Chapter 06
00:29:51.915 : :Chapter 07
00:34:41.746 : :Chapter 08
00:38:24.885 : :Chapter 09
00:41:23.898 : :Chapter 10
00:44:44.723 : :Chapter 11
00:48:08.302 : :Chapter 12
00:51:32.547 : :Chapter 13
00:53:56.149 : :Chapter 14
00:56:16.873 : :Chapter 15
01:00:25.371 : :Chapter 16
01:05:41.145 : :Chapter 17
01:08:57.800 : :Chapter 18
01:11:19.483 : :Chapter 19
01:14:05.107 : :Chapter 20
01:16:48.979 : :Chapter 21
01:20:20.982 : :Chapter 22
01:22:44.292 : :Chapter 23
01:27:17.106 : :Chapter 24
01:29:22.398 : :Chapter 25
01:33:26.017 : :Chapter 26
01:37:16.956 : :Chapter 27
01:42:56.461 : :Chapter 28
01:49:16.550 : :Chapter 29


Свернуть

Скриншоты
Изображение
Изображение
Изображение
Изображение
Свернуть
Не в сети
Профиль  
 Добавлено: 2012-03-01 21:59 (спустя 4 часа)
Аватара пользователя
Стаж: 9 лет
Сообщений: 193
Спасибок: 11
Лайков: 4
:co_ol:
Не в сети
Профиль  
 Добавлено: 2012-03-03 19:54 (спустя 1 день 21 час)
Стаж: 7 лет 4 месяца
Сообщений: 3
Ау!!!!!!!!!!! Дайте докачать! Скачалось 57.1% и все пропали.
Не в сети
Профиль  
 Добавлено: 2012-03-09 01:29 (спустя 5 дней)
Стаж: 8 лет
Сообщений: 8
дайте скорости ребят
Не в сети
Профиль  
Начать новую темуОтветить на тему  [ Сообщений: 4 ] 
Вы не можете начинать темы
Вы не можете отвечать на сообщения
Вы не можете редактировать свои сообщения
Вы не можете удалять свои сообщения