Правила форума

  • В этом разделе создание новых тем Запрещено.
  • Для создания новых тем пользуйтесь Корневым разделом DVD и HD фильмы.
Начать новую темуОтветить на тему  [ 1 сообщение ] 
Торрент файл
Размер: 27.93 GB • Зарегистрирован: 3 года 5 месяцев • Статус: Проверено
Скачан: 36 раз • Желающих скачать: 0 • Поблагодарили: 15 раз
 Раздают: 0  |  0 KB/s  ]   Качают: 0  |  0 KB/s  ] 
 Полного источника не было 2 года 8 месяцев 
Сообщения
 Добавлено: 2013-08-01 18:49
Модератор релиз-группы
Аватара пользователя
Стаж: 7 лет 8 месяцев
Возраст: 29
Сообщений: 9789
Спасибок: 23730
Лайков: 103
Изображение

Время
In Time


Год выпуска: 2011
Страна: США
Слоган: «Живи вечно или умри, пытаясь»
Жанр: фантастика, триллер, драма, мелодрама, криминал
Продолжительность: 01:49:16
Перевод: Профессиональный (полное дублирование)
Режиссер: Эндрю Никкол
Сценарий: Эндрю Никкол
Продюсер: Марк Абрахам, Эрик Ньюман, Эндрю Никкол, Эндрю З. Дэвис, Росс Фанджер
Оператор: Роджер Дикинс
Композитор: Крэйг Армстронг
В ролях: Джастин Тимберлэйк, Аманда Сайфред, Киллиан Мёрфи, Алекс Петтифер, Винсент Картайзер, Джонни Галэки, Коллинс Пенни, Тоби Хемингуэй, Оливия Уайлд, Шайло Уствальд, Мэтт Бомер, Колин МакГерк
Бюджет: $40 000 000
Сборы в США: $37 520 095
Сборы в России: $14 773 018
Сборы в мире: $173 930 596
Мировая премьера: 30 сентября 2011
Релиз на DVD: 8 декабря 2011, «Двадцатый Век Фокс СНГ»
Релиз на Blu-ray: 23 февраля 2012, «Двадцатый Век Фокс СНГ»
Описание: Добро пожаловать в мир, где время стало единственной и самой твердой валютой, где люди генетически запрограммированы так, что в 25 лет перестают стареть. Правда, последующие годы стоят денег. И вот богатые становятся практически бессмертными, а бедные, как всегда, обречены сражаться за жизнь.
Уилл, бунтарь из гетто, несправедливо обвинен в убийстве с целью грабежа времени и вынужден, захватив заложницу, пуститься в бега. Так, ежеминутно рискуя жизнью, эти двое становятся грозным оружием в борьбе с системой. Но вот вопрос: кто кого? А может быть, в дело вмешается третья сила?..


Изображение User Rating: 7.268 (96 345)
Изображение User Rating: 6.60 (163 794)
MPAA: PG-13 - Детям до 13 лет просмотр не желателен
Раздача группы: Изображение
Релиз группы: Изображение
Изображение
Качество: BD-Remux, 1080p
Формат: MKV
Видео: AVC; 1920x1080 (16:9); 23,976 fps
Аудио №1: русский; DTS; 1510 Kbps; CBR; 6 ch; 24 bit
Аудио №2: украинский; AC3; 384 Kbps; CBR; 6 ch
Аудио №3: DTS-HD; VBR; 6 ch; 24 bit

Субтитры №1: русские
Субтитры №2: русские
Субтитры №3: английские
Субтитры №4: английские

mediainfo
Общее
Уникальный идентификатор : 205321468187378338649329009599876410328 (0x9A7779F416F299578FF438246617ABD8)
Полное имя : D:\TORRENT\Vremja.2011.MPEG-4-AVC.BluRay-Remux(1080p).mkv
Формат : Matroska
Размер файла : 27,9 Гбайт
Продолжительность : 1 ч. 49 м.
Общий поток : 36,6 Мбит/сек
Название фильма : --SCHUMAHER--
Дата кодирования : UTC 2012-01-24 08:03:06
Программа кодирования : mkvmerge v5.2.0 ('I can't explain') built on Dec 18 2011 18:12:03
Библиотека кодирования : libebml v1.2.3 + libmatroska v1.3.0

Видео
Идентификатор : 1
Формат : AVC
Формат/Информация : Advanced Video Codec
Профиль формата : High@L4.1
Параметр CABAC формата : Да
Параметр ReFrames формата : 4 кадра
Идентификатор кодека : V_MPEG4/ISO/AVC
Продолжительность : 1 ч. 49 м.
Вид битрейта : Переменный
Битрейт : 32,4 Мбит/сек
Максимальный битрейт : 32,5 Мбит/сек
Ширина : 1920 пикс.
Высота : 1080 пикс.
Соотношение сторон : 16:9
Частота кадров : 23,976 кадр/сек
Цветовое пространство : YUV
Подвыборка цветности : 4:2:0
Битовая глубина : 8 бит
Тип развёртки : Прогрессивная
Бит/(Пиксели*Кадры) : 0.652
Размер потока : 24,7 Гбайт (89%)
Язык : English

Аудио #1
Идентификатор : 2
Формат : DTS
Формат/Информация : Digital Theater Systems
Идентификатор кодека : A_DTS
Продолжительность : 1 ч. 49 м.
Вид битрейта : Постоянный
Битрейт : 1510 Кбит/сек
Каналы : 6 каналов
Расположение каналов : Front: L C R, Side: L R, LFE
Частота : 48,0 КГц
Битовая глубина : 24 бит
Метод сжатия : С потерями
Размер потока : 1,15 Гбайт (4%)
Язык : Russian

Аудио #2
Идентификатор : 3
Формат : AC-3
Формат/Информация : Audio Coding 3
Расширение режима : CM (complete main)
Идентификатор кодека : A_AC3
Продолжительность : 1 ч. 49 м.
Вид битрейта : Постоянный
Битрейт : 384 Кбит/сек
Каналы : 6 каналов
Расположение каналов : Front: L C R, Side: L R, LFE
Частота : 48,0 КГц
Битовая глубина : 16 бит
Метод сжатия : С потерями
Размер потока : 300 Мбайт (1%)
Язык : Ukrainian

Аудио #3
Идентификатор : 4
Формат : DTS
Формат/Информация : Digital Theater Systems
Профиль формата : MA / Core
Идентификатор кодека : A_DTS
Продолжительность : 1 ч. 49 м.
Вид битрейта : Переменный
Битрейт : 1561 Кбит/сек / 1510 Кбит/сек
Каналы : 6 каналов
Расположение каналов : Front: L C R, Side: L R, LFE
Частота : 48,0 КГц
Битовая глубина : 24 бит
Метод сжатия : Без потерь / Lossy
Язык : English

Текст #1
Идентификатор : 5
Формат : UTF-8
Идентификатор кодека : S_TEXT/UTF8
Идентификатор кодека/Информация : UTF-8 Plain Text
Заголовок : Forced
Язык : Russian

Текст #2
Идентификатор : 6
Формат : UTF-8
Идентификатор кодека : S_TEXT/UTF8
Идентификатор кодека/Информация : UTF-8 Plain Text
Заголовок : Full
Язык : Russian

Текст #3
Идентификатор : 7
Формат : UTF-8
Идентификатор кодека : S_TEXT/UTF8
Идентификатор кодека/Информация : UTF-8 Plain Text
Язык : English

Текст #4
Идентификатор : 8
Формат : UTF-8
Идентификатор кодека : S_TEXT/UTF8
Идентификатор кодека/Информация : UTF-8 Plain Text
Заголовок : SDH
Язык : English

Меню
00:00:00.000 : en:
00:05:54.270 : en:
00:10:50.733 : en:
00:18:58.095 : en:
00:22:16.376 : en:
00:25:30.445 : en:
00:29:51.915 : en:
00:34:41.746 : en:
00:38:24.885 : en:
00:41:23.898 : en:
00:44:44.723 : en:
00:48:08.302 : en:
00:51:32.547 : en:
00:53:56.149 : en:
00:56:16.873 : en:
01:00:25.371 : en:
01:05:41.145 : en:
01:08:57.800 : en:
01:11:19.483 : en:
01:14:05.107 : en:
01:16:48.979 : en:
01:20:20.982 : en:
01:22:44.292 : en:
01:27:17.106 : en:
01:29:22.398 : en:
01:33:26.017 : en:
01:37:16.956 : en:
01:42:56.461 : en:


Свернуть
"Знаете ли Вы, что..."
  • В последних сценах страж гонится за влюбленными. Когда страж смотрит на свое время он видит 44 минуты, а у Сильвии 1 час. В конце погони у них разница 2 минуты.
  • Оливия Уайлд (мать Уилла) в реальной жизни на 3 года младше Джастина Тимберлэйка (Уилл).
  • Для Роджера Дикинса, оператора картины, ранее использовавшего только пленочные аппараты, «Время» стал первым фильмом, снятым на цифровую камеру.
  • Первоначальное рабочее название ленты - «I’m.mortal», которое потом переименовали в «Now», а затем в конечное «In Time».
  • Автомобили в фильме имеют выхлопные трубы, но их движение сопровождается звуком, характерным для современных электромобилей. Аналогичный приём для отображения автомобилей будущего Эндрю Никкол ранее использовал в фильме «Гаттака» (1997).
  • В сцене, где Рэйчел не села в автобус из-за увеличения стоимости проезда, у неё оставалось полтора часа времени. Когда автобус доехал до остановки, где Рэйчел ждал сын, на её часах оставалось примерно 20 минут, то есть автобус ехал 1 ч. 10 мин. Следовательно, даже если бы цена проезда осталась прежней (1 час), то после уплаты за проезд у Рэйчел оставалось бы около 30 минут, что существенно меньше длительности поездки.
  • Транспорт в фильме не имеет номерных знаков.
  • В конце фильма, когда у Сильвии и Уилла остаются последние секунды, после отдачи времени из машины копа, когда Сильвия бросается к Уиллу, то на ней можно увидеть закрытые черные туфли на каблуке, но несколько секунд спустя на ней надеты босоножки на платформе и очень высоком каблуке.
Свернуть
Скриншоты

Изображение
Изображение
Изображение
Изображение
Изображение
Изображение
Изображение
Изображение
Свернуть


Тема поднималась пользователем volkov2009 2013-08-01 18:49.
Не в сети
Профиль  
Начать новую темуОтветить на тему  [ 1 сообщение ] 
Вы не можете начинать темы
Вы не можете отвечать на сообщения
Вы не можете редактировать свои сообщения
Вы не можете удалять свои сообщения