Правила форума

  • В этом разделе создание новых тем Запрещено.
  • Для создания новых тем пользуйтесь Корневым разделом DVD и HD фильмы.
Начать новую темуОтветить на тему  [ Сообщений: 6 ] 
Торрент файл
Размер: 10.27 GB • Зарегистрирован: 5 лет 8 месяцев • Статус: Проверено
Скачан: 582 раза • Желающих скачать: 0 • Поблагодарили: 77 раз
 Раздают: 0  |  0 KB/s  ]   Качают: 0  |  0 KB/s  ] 
 Полного источника не было 6 часов 
Сообщения
 Добавлено: 2011-03-18 17:42
Аватара пользователя
Стаж: 6 лет 6 месяцев
Сообщений: 214
Спасибок: 10697
Время ведьм
Season of the Witch

Изображение

Год выпуска: 2010
Страна: США
Слоган: «Не все души можно спасти»

Жанр: фэнтези, боевик, приключения
Продолжительность: 01:34:42
Перевод: Профессиональный (полное дублирование)

Режиссер: Доминик Сена
Сценарий: Брэги Ф. Шут
Продюсер: Алекс Гартнер, Чарльз Ровен, Стив Александр, Алан Глейзер, Том Карновски
Оператор: Амир М. Мокри
Композитор: Этли Орварссон

В ролях: Николас Кейдж, Рон Перлман, Стивен Кэмпбелл Мур, Стивен Грэм, Ульрих Томсен, Клер Фой, Роберт Шиэн, Кристофер Ли, Ребека Кеннеди, Эндрю Хефлер, Фернанда Дороги, Кевин Риис
Дублёры: Александр Рахленко, Александр Новиков, Денис Беспалый, Леонид Белозорович, Никита Прозоровский, Ольга Голованова, Диомид Виноградов, Петр Тобилевич
Бюджет: $40 000 000
Сборы в США: $24 768 449
Сборы в России: $11 103 789
Сборы в мире: $76 368 449

Мировая премьера: 4 января 2011
Релиз на DVD: 17 марта 2011, «CP-Digital»
Релиз на Blu-ray: 17 марта 2011, «CP-Digital»
Описание: XIV столетие. В Европе свирепствует чума. Виновницей смертоносной беды признают беззащитную девушку, подозревая ее в колдовстве. Умирающий кардинал просит рыцаря Бэймена доставить ведьму в далекое аббатство, где ее чары должны быть разрушены.
Семеро верховых и повозка с железной клеткой, в которой заточена обвиняемая, отправляются в опасное путешествие. Скоро рыцари осознают, их миловидная спутница действительно не человек, а исчадие ада.
Изображение 5.50 (5 825) Изображение 6.256 (8 190)
MPAA: Изображение - Детям до 13 лет просмотр не желателен
Релиз группы: Изображение Раздача: Изображение
Изображение
Формат: MKV (H.264)
Качество: BDRip 1080p R5
Видео: 12.5 mb/s, 1920x1080, 0.252
Аудио: Russian / English: DTS, 1510 kb/s (6 ch)
Субтитры: Russian
Размер: 10.27 GB
NFO
Полное имя : JurganT: Season.Of.The.Witch.2011.D.BDRip.1080p.[uniongang.tv].mkv
Формат : Matroska
Размер файла : 10,3 Гбайт
Продолжительность : 1 ч. 34 м.
Общий поток : 15,5 Мбит/сек
Название фильма : Время ведьм / Season of the Witch (2011) .....:::UNIONGANG:::.....
Дата кодирования : UTC 2011-03-17 21:39:01
Программа кодирования : mkvmerge v4.6.0 ('Still Crazy After All These Years') сборка от Mar 10 2011 02:50:32
Библиотека кодирования : libebml v1.2.0 + libmatroska v1.1.0

Видео
Идентификатор : 1
Формат : AVC
Формат/Информация : Advanced Video Codec
Профиль формата : High@L4.1
Параметр CABAC формата : Да
Параметр ReFrames формата : 5 кадры
Идентификатор кодека : V_MPEG4/ISO/AVC
Продолжительность : 1 ч. 34 м.
Битрейт : 12,5 Мбит/сек
Ширина : 1920 пикс.
Высота : 1080 пикс.
Соотношение сторон : 16:9
Частота кадров : 23,976 кадр/сек
Цветовое пространство : YUV
Подвыборка цветности : 4:2:0
Битовая глубина : 8 бит
Тип развёртки : Прогрессивная
Бит/(Пиксели*Кадры) : 0.252
Размер потока : 8,07 Гбайт (79%)
Заголовок : Season.Of.The.Witch.2011.D.BDRip.1080p
Библиотека кодирования : x264 core 114 r1913 5fd3dce
Настройки программы : cabac=1 / ref=5 / deblock=1:-1:-1 / analyse=0x3:0x113 / me=umh / subme=9 / psy=1 / psy_rd=1.00:0.00 / mixed_ref=1 / me_range=16 / chroma_me=1 / trellis=1 / 8x8dct=1 / cqm=0 / deadzone=21,11 / fast_pskip=1 / chroma_qp_offset=-2 / threads=6 / sliced_threads=0 / nr=0 / decimate=1 / interlaced=0 / constrained_intra=0 / bframes=3 / b_pyramid=2 / b_adapt=1 / b_bias=0 / direct=3 / weightb=1 / open_gop=0 / weightp=2 / keyint=250 / keyint_min=24 / scenecut=40 / intra_refresh=0 / rc_lookahead=40 / rc=2pass / mbtree=1 / bitrate=12515 / ratetol=1.0 / qcomp=0.60 / qpmin=10 / qpmax=51 / qpstep=4 / cplxblur=20.0 / qblur=0.5 / ip_ratio=1.40 / aq=1:1.00
Язык : English

Аудио #1
Идентификатор : 2
Формат : DTS
Формат/Информация : Digital Theater Systems
Идентификатор кодека : A_DTS
Продолжительность : 1 ч. 34 м.
Вид битрейта : Постоянный
Битрейт : 1510 Кбит/сек
Канал(ы) : 6 канала(ов)
Расположение каналов : Front: L C R, Side: L R, LFE
Частота : 48,0 КГц
Битовая глубина : 24 бит
Метод сжатия : С потерями
Размер потока : 1023 Мбайт (10%)
Заголовок : DTS 5.1 @ 1510 kb/s [Russian DUB Blu-ray]
Язык : Russian

Аудио #2
Идентификатор : 3
Формат : DTS
Формат/Информация : Digital Theater Systems
Идентификатор кодека : A_DTS
Продолжительность : 1 ч. 34 м.
Вид битрейта : Постоянный
Битрейт : 1510 Кбит/сек
Канал(ы) : 6 канала(ов)
Расположение каналов : Front: L C R, Side: L R, LFE
Частота : 48,0 КГц
Битовая глубина : 24 бит
Метод сжатия : С потерями
Размер потока : 1023 Мбайт (10%)
Заголовок : DTS 5.1 @ 1510 kb/s [English]
Язык : English

Текст
Идентификатор : 4
Формат : UTF-8
Идентификатор кодека : S_TEXT/UTF8
Идентификатор кодека/Информация : UTF-8 Plain Text
Заголовок : Russian SUB
Язык : Russian
Свернуть

"Знаете ли Вы, что..."
  • Для съемок сцены погони волков за главными героями создатели фильма обратились к известному дрессировщику Золтану Хоркаи. В съемках принимали участие семь волков, причем каждый должен был выполнять определенные действия на экране.
Свернуть
"Скриншоты"

Изображение
Изображение
Изображение
Свернуть
Не в сети
Профиль  
 Добавлено: 2011-03-18 23:17 (спустя 5 часов)
Стаж: 7 лет 3 месяца
Возраст: 33
Сообщений: 194
Лайков: 6
Типа мы первые поспели, посмотрим, с Кейджем фильмы мне нравятся :) Спасибо за раздачу :bra_vo:
Не в сети
Профиль  
 Добавлено: 2011-03-23 01:42 (спустя 4 дня)
Аватара пользователя
Стаж: 8 лет 2 месяца
Возраст: 28
Сообщений: 61
Спасибок: 1
Кул давно ждал спасибо!!!
Не в сети
Профиль  
 Добавлено: 2011-03-25 14:55 (спустя 2 дня 13 часов)
Стаж: 7 лет 5 месяцев
Сообщений: 51
Кто смотрел, как фильм? Файл не косячный?
Не в сети
Профиль  
 Добавлено: 2011-04-03 21:17 (спустя 9 дней)
Аватара пользователя
Стаж: 9 лет
Возраст: 27
Сообщений: 208
Спасибок: 18
На середине фильма уснул :-D проснулся на титрах уже.... :ze_va_et:
Не в сети
Профиль  
 Добавлено: 2011-08-24 07:27 (спустя 4 месяца 20 дней)
Аватара пользователя
Стаж: 7 лет 11 месяцев
Сообщений: 786
Спасибок: 25
Лайков: 9
У меня происходят лаги в фильме тоесть картинка превращается в квадратики !!! :par_don: Это не видеокарта и не видеокодек Так как Остальные фильмы ни разу не заглючило но мне с этим не повезло . :men:
Не в сети
Профиль  
Начать новую темуОтветить на тему  [ Сообщений: 6 ] 
Вы не можете начинать темы
Вы не можете отвечать на сообщения
Вы не можете редактировать свои сообщения
Вы не можете удалять свои сообщения
cron