Правила форума

  • В этом разделе создание новых тем Запрещено.
  • Для создания новых тем пользуйтесь Корневым разделом DVD и HD фильмы.
Начать новую темуОтветить на тему  [ 1 сообщение ] 
Торрент файл
Размер: 11.98 GB • Зарегистрирован: 3 года 7 месяцев • Статус: Проверено
Скачан: 31 раз • Желающих скачать: 0 • Поблагодарили: 9 раз
 Раздают: 0  |  0 KB/s  ]   Качают: 0  |  0 KB/s  ] 
 Полного источника не было 2 года 8 месяцев 
Сообщения
 Добавлено: 2013-08-28 18:12
Модератор релиз-группы
Аватара пользователя
Стаж: 7 лет 8 месяцев
Возраст: 29
Сообщений: 9789
Спасибок: 23730
Лайков: 103
Изображение

Все любят китов
Big Miracle


Год выпуска: 2012
Страна: США, Великобритания
Слоган: «Семья китов попала в ледяную ловушку. Хватит ли людям силы и любви совершить чудо.»
Жанр: драма, мелодрама, семейный
Продолжительность: 01:46:48
Перевод: Профессиональный (полное дублирование)
Режиссер: Кен Куопис
Сценарий: Джек Эмиел, Майкл Беглер, Томас Роуз
Продюсер: Тим Беван, Лиза Чейсин, Эрик Феллнер, Стив Голин, Майкл Шуга
Оператор: Джон Бэйли
Композитор: Клифф Эйдельман
В ролях: Дрю Бэрримор, Джон Красински, Кристен Белл, Дермот Малруни, Тим Блейк Нельсон, Винесса Шоу, Тед Дэнсон, Джон Пингаяк, Ахмагак Суини, Джон Чейз, Измаэль Ангалук Хоуп, Отниэль «Анакулутук» Оомиттук мл.
Бюджет: $40 000 000
Сборы в США: $20 157 300
Сборы в России: $547 609
Сборы в мире: $24 719 215
Мировая премьера: 2 февраля 2012
Релиз на DVD: 7 июня 2012, «Двадцатый Век Фокс СНГ»
Релиз на Blu-ray: 7 июня 2012, «Двадцатый Век Фокс СНГ»
Описание: Любовная искорка вспыхивает между сотрудником некоммерческой гуманитарной организации и государственным служащим, работающими вместе, чтобы спасти трех серых китов, попавших в ловушку подо льдом в арктических льдах.

Изображение User Rating: 7.253 (3811)
Изображение User Rating: 6.30 (9 114)
MPAA: PG - Рекомендуется присутствие родителей
Раздача группы: Изображение
Релиз группы: Изображение
Изображение
Качество: BDRip, 1080p
Формат: MKV
Видео: AVC; 1920x800 (2.40:1); 13475 Kbps; 23,976 fps; 0,366 bit/pixel
Аудио №1: русский; DTS; 755 Kbps; CBR; 6 ch; 24 bit
Аудио №2: DTS; 1510 Kbps; CBR; 6 ch; 24 bit

Субтитры №1: русские
Субтитры №2: русские
Субтитры №3: английские
Субтитры №4: английские

mediainfo
Полное имя : Vse ljubjat kitov.2012.BDRip.1080p.x264-BufeR.mkv
Формат : Matroska
Версия формата : Version 2
Размер файла : 12,0 Гбайт
Продолжительность : 1 ч. 46 м.
Общий поток : 16,1 Мбит/сек
Название фильма : Vse ljubjat kitov.2012.BDRip.1080p.x264-BufeR
Дата кодирования : UTC 2012-06-02 04:41:09
Программа кодирования : mkvmerge v5.5.0 ('Healer') built on Apr 6 2012 21:43:24
Библиотека кодирования : libebml v1.2.3 + libmatroska v1.3.0

Видео
Идентификатор : 1
Формат : AVC
Формат/Информация : Advanced Video Codec
Профиль формата : High@L4.1
Параметр CABAC формата : Да
Параметр ReFrames формата : 4 кадра
Идентификатор кодека : V_MPEG4/ISO/AVC
Продолжительность : 1 ч. 46 м.
Битрейт : 13,8 Мбит/сек
Ширина : 1920 пикселей
Высота : 800 пикселей
Соотношение сторон : 2,40:1
Частота кадров : 23,976 кадра/сек
Цветовое пространство : YUV
Субдискретизация насыщенности : 4:2:0
Битовая глубина : 8 бит
Тип развёртки : Прогрессивная
Бит/(Пиксели*Кадры) : 0.374
Размер потока : 10,1 Гбайт (84%)
Заголовок : Vse ljubjat kitov.2012.BDRip.1080p.x264-BufeR
Библиотека кодирования : x264 core 124 r2197 69a0443
Настройки программы : cabac=1 / ref=4 / deblock=1:-2:-2 / analyse=0x3:0x113 / me=umh / subme=11 / psy=1 / psy_rd=1.05:0.00 / mixed_ref=1 / me_range=32 / chroma_me=1 / trellis=2 / 8x8dct=1 / cqm=0 / deadzone=21,11 / fast_pskip=0 / chroma_qp_offset=-2 / threads=6 / sliced_threads=0 / nr=0 / decimate=1 / interlaced=0 / bluray_compat=0 / constrained_intra=0 / bframes=7 / b_pyramid=2 / b_adapt=2 / b_bias=0 / direct=3 / weightb=1 / open_gop=0 / weightp=2 / keyint=250 / keyint_min=24 / scenecut=40 / intra_refresh=0 / rc_lookahead=40 / rc=2pass / mbtree=0 / bitrate=13770 / ratetol=1.0 / qcomp=0.60 / qpmin=0 / qpmax=69 / qpstep=4 / cplxblur=20.0 / qblur=0.5 / vbv_maxrate=50000 / vbv_bufsize=50000 / nal_hrd=none / ip_ratio=1.40 / pb_ratio=1.30 / aq=1:1.00
Язык : English
Default : Да
Forced : Нет

Аудио #1
Идентификатор : 2
Формат : DTS
Формат/Информация : Digital Theater Systems
Идентификатор кодека : A_DTS
Продолжительность : 1 ч. 46 м.
Вид битрейта : Постоянный
Битрейт : 755 Кбит/сек
Каналы : 6 каналов
Расположение каналов : Front: L C R, Side: L R, LFE
Частота : 48,0 КГц
Битовая глубина : 24 бит
Метод сжатия : С потерями
Размер потока : 576 Мбайт (5%)
Язык : Russian
Default : Да
Forced : Нет

Аудио #2
Идентификатор : 3
Формат : DTS
Формат/Информация : Digital Theater Systems
Идентификатор кодека : A_DTS
Продолжительность : 1 ч. 46 м.
Вид битрейта : Постоянный
Битрейт : 1510 Кбит/сек
Каналы : 6 каналов
Расположение каналов : Front: L C R, Side: L R, LFE
Частота : 48,0 КГц
Битовая глубина : 24 бит
Метод сжатия : С потерями
Размер потока : 1,13 Гбайт (9%)
Язык : English
Default : Нет
Forced : Нет

Текст #1
Идентификатор : 4
Формат : PGS
Режим смешивания : zlib
Идентификатор кодека : S_HDMV/PGS
Идентификатор кодека/Информация : The same subtitle format used on BDs/HD-DVDs
Язык : Russian
Default : Нет
Forced : Нет

Текст #2
Идентификатор : 5
Формат : PGS
Режим смешивания : zlib
Идентификатор кодека : S_HDMV/PGS
Идентификатор кодека/Информация : The same subtitle format used on BDs/HD-DVDs
Заголовок : Forced
Язык : Russian
Default : Нет
Forced : Нет

Текст #3
Идентификатор : 6
Формат : PGS
Режим смешивания : zlib
Идентификатор кодека : S_HDMV/PGS
Идентификатор кодека/Информация : The same subtitle format used on BDs/HD-DVDs
Язык : English
Default : Нет
Forced : Нет

Текст #4
Идентификатор : 7
Формат : PGS
Режим смешивания : zlib
Идентификатор кодека : S_HDMV/PGS
Идентификатор кодека/Информация : The same subtitle format used on BDs/HD-DVDs
Заголовок : Forced
Язык : English
Default : Нет
Forced : Нет

Меню
00:00:00.000 : en:00:00:00.000
00:04:36.985 : en:00:04:36.985
00:10:40.181 : en:00:10:40.181
00:16:40.541 : en:00:16:40.541
00:20:50.374 : en:00:20:50.374
00:25:37.161 : en:00:25:37.161
00:30:46.636 : en:00:30:46.636
00:35:37.218 : en:00:35:37.218
00:39:52.056 : en:00:39:52.056
00:45:51.374 : en:00:45:51.374
00:51:44.101 : en:00:51:44.101
00:58:16.368 : en:00:58:16.368
01:03:10.537 : en:01:03:10.537
01:07:58.533 : en:01:07:58.533
01:12:06.864 : en:01:12:06.864
01:17:25.224 : en:01:17:25.224
01:24:53.505 : en:01:24:53.505
01:28:05.614 : en:01:28:05.614
01:35:42.737 : en:01:35:42.737
01:38:46.379 : en:01:38:46.379

x264 [info]: frame I:1267 Avg QP:16.24 size:209877
x264 [info]: frame P:28602 Avg QP:17.77 size: 93019
x264 [info]: frame B:123789 Avg QP:19.04 size: 65345
x264 [info]: consecutive B-frames: 1.3% 0.8% 3.7% 7.1% 13.3% 65.9% 5.6% 2.2%

Свернуть
Скриншоты

Изображение
Изображение
Изображение
Изображение
Изображение
Изображение
Изображение
Изображение
Свернуть


Тема поднималась пользователем volkov2009 2013-08-28 18:12.
Не в сети
Профиль  
Начать новую темуОтветить на тему  [ 1 сообщение ] 
Вы не можете начинать темы
Вы не можете отвечать на сообщения
Вы не можете редактировать свои сообщения
Вы не можете удалять свои сообщения