Правила форума

  • В этом разделе создание новых тем Запрещено.
  • Для создания новых тем пользуйтесь Корневым разделом DVD и HD фильмы.
Начать новую темуОтветить на тему  [ Сообщений: 7 ] 
Торрент файл
Размер: 16.96 GB • Зарегистрирован: 3 года 9 месяцев • Статус: Проверено
Скачан: 62 раза • Желающих скачать: 0 • Поблагодарили: 18 раз
 Раздают: 0  |  0 KB/s  ]   Качают: 0  |  0 KB/s  ] 
 Полного источника не было 2 дня 
Сообщения
 Добавлено: 2013-02-17 00:17
Модератор релиз-группы
Аватара пользователя
Стаж: 7 лет 8 месяцев
Возраст: 29
Сообщений: 9789
Спасибок: 23730
Лайков: 103
Изображение

Всегда говори «ДА»
Yes Man


Год выпуска: 2008
Страна: США, Австралия
Слоган: «Одно слово может изменить твою жизнь»
Жанр: комедия
Продолжительность: 01:44:24
Перевод: Профессиональный (полное дублирование)
Режиссер: Пейтон Рид
Сценарий: Николас Столлер, Джэррад Пол, Эндрю Моугел, Дэнни Уоллес
Продюсер: Дэвид Хейман, Ричард Д. Занук, Брюс Берман, Тиффани Дэниэл, Марти П. Юинг
Оператор: Роберт Д. Йоумен
Композитор: Марк Эверетт, Лайл Уоркмэн
В ролях: Джим Керри, Зои Дешанель, Брэдли Купер, Джон Майкл Хиггинс, Риз Дэрби, Дэнни Мастерсон, Фионнула Флэнаган, Теренс Стэмп, Саша Александр, Молли Симс, Брент Бриско, Роки Кэрролл
Бюджет: $70 000 000
Сборы в США: $97 690 976
Сборы в России: $7 901 532
Сборы в мире: $223 213 390
Мировая премьера: 9 декабря 2008
Релиз на DVD: 7 апреля 2009, «Юниверсал Пикчерс Рус»
Релиз на Blu-ray: 7 апреля 2009, «Юниверсал Пикчерс Рус»
Описание: Депрессивный главный герой всегда и всем говорил «нет» - например, друзьям, если они зовут куда-то. Но в один прекрасный день он заключает соглашение, по которому всегда должен отвечать «Да» на любое предложение...

Изображение User Rating: 7.913 (89 140)
Изображение User Rating: 6.80 (163 714)
MPAA: PG-13 - Детям до 13 лет просмотр не желателен
Раздача группы: Изображение
Изображение
Качество: BD-Remux, 1080p
Формат: MKV
Видео: VC-1; 1920x1080 (16:9); 20681 Kbps; 23,976 fps; 0,416 bit/pixel
Аудио №1: русский; AC3; 640 Kbps; CBR; 6 ch
Аудио №2: украинский; AC3; 640 Kbps; CBR; 6 ch
Аудио №3: английский; AC3; 640 Kbps; CBR; 6 ch
Аудио №4: английский; AC3; 192 Kbps; CBR; 2 ch

Субтитры №1: русские
Субтитры №2: русские
Субтитры №3: русские
Субтитры №4: украинские
Субтитры №5: английские

mediainfo
Общее
Уникальный идентификатор : 183575200819506790085149172609532946370 (0x8A1B4C318380B1D3898C4168B961E7C2)
Полное имя : D:\TORRENT\Vsegda.govori.DA.[R.G.Daredevil].mkv
Формат : Matroska
Размер файла : 17,0 Гбайт
Продолжительность : 1 ч. 44 м.
Общий поток : 23,3 Мбит/сек
Название фильма : Yes Man (2008)
Дата кодирования : UTC 2009-04-26 19:52:17
Программа кодирования : mkvmerge v2.7.0 ('Do It Again') built on Apr 15 2009 00:27:10
Библиотека кодирования : libebml v0.7.7 + libmatroska v0.8.1
Обложка : Yes

Видео
Идентификатор : 1
Формат : VC-1
Профиль формата : AP@L3
Идентификатор кодека : WVC1
Идентификатор кодека/Подсказка : Microsoft
Продолжительность : 1 ч. 44 м.
Битрейт : 20,7 Мбит/сек
Ширина : 1920 пикс.
Высота : 1080 пикс.
Соотношение сторон : 16:9
Частота кадров : 23,976 кадр/сек
Подвыборка цветности : 4:2:0
Битовая глубина : 8 бит
Тип развёртки : Прогрессивная
Метод сжатия : С потерями
Бит/(Пиксели*Кадры) : 0.416
Размер потока : 15,1 Гбайт (89%)
Заголовок : Yes Man 2008 1080p BluRay VC-1 TrueHD 5.1-DON
Язык : English

Аудио #1
Идентификатор : 2
Формат : AC-3
Формат/Информация : Audio Coding 3
Расширение режима : CM (complete main)
Идентификатор кодека : A_AC3
Продолжительность : 1 ч. 44 м.
Вид битрейта : Постоянный
Битрейт : 640 Кбит/сек
Каналы : 6 каналов
Расположение каналов : Front: L C R, Side: L R, LFE
Частота : 48,0 КГц
Битовая глубина : 16 бит
Метод сжатия : С потерями
Размер потока : 478 Мбайт (3%)
Заголовок : RUS Dub DD 5.1 @ 640 kbps
Язык : Russian

Аудио #2
Идентификатор : 3
Формат : AC-3
Формат/Информация : Audio Coding 3
Расширение режима : CM (complete main)
Идентификатор кодека : A_AC3
Продолжительность : 1 ч. 44 м.
Вид битрейта : Постоянный
Битрейт : 640 Кбит/сек
Каналы : 6 каналов
Расположение каналов : Front: L C R, Side: L R, LFE
Частота : 48,0 КГц
Битовая глубина : 16 бит
Метод сжатия : С потерями
Размер потока : 478 Мбайт (3%)
Заголовок : UKR Dub DD 5.1 @ 640 kbps
Язык : Ukrainian

Аудио #3
Идентификатор : 4
Формат : AC-3
Формат/Информация : Audio Coding 3
Расширение режима : CM (complete main)
Идентификатор кодека : A_AC3
Продолжительность : 1 ч. 44 м.
Вид битрейта : Постоянный
Битрейт : 640 Кбит/сек
Каналы : 6 каналов
Расположение каналов : Front: L C R, Side: L R, LFE
Частота : 48,0 КГц
Битовая глубина : 16 бит
Метод сжатия : С потерями
Размер потока : 478 Мбайт (3%)
Заголовок : ENG DD 5.1 @ 640 kbps
Язык : English

Аудио #4
Идентификатор : 5
Формат : AC-3
Формат/Информация : Audio Coding 3
Профиль формата : Dolby Digital
Расширение режима : CM (complete main)
Идентификатор кодека : A_AC3
Продолжительность : 1 ч. 44 м.
Вид битрейта : Постоянный
Битрейт : 192 Кбит/сек
Каналы : 2 канала
Расположение каналов : Front: L R
Частота : 48,0 КГц
Битовая глубина : 16 бит
Метод сжатия : С потерями
Размер потока : 143 Мбайт (1%)
Заголовок : ENG commentary DD Surround 2.0 @ 192 kbps
Язык : English

Текст #1
Идентификатор : 6
Формат : UTF-8
Идентификатор кодека : S_TEXT/UTF8
Идентификатор кодека/Информация : UTF-8 Plain Text
Заголовок : RUS forced SRT/UTF8
Язык : Russian

Текст #2
Идентификатор : 7
Формат : UTF-8
Идентификатор кодека : S_TEXT/UTF8
Идентификатор кодека/Информация : UTF-8 Plain Text
Заголовок : RUS SRT/UTF8
Язык : Russian

Текст #3
Идентификатор : 8
Формат : UTF-8
Идентификатор кодека : S_TEXT/UTF8
Идентификатор кодека/Информация : UTF-8 Plain Text
Заголовок : RUS HoH fan by leshik SRT/UTF8
Язык : Russian

Текст #4
Идентификатор : 9
Формат : UTF-8
Идентификатор кодека : S_TEXT/UTF8
Идентификатор кодека/Информация : UTF-8 Plain Text
Заголовок : UKR forced SRT/UTF8
Язык : Ukrainian

Текст #5
Идентификатор : 10
Формат : UTF-8
Идентификатор кодека : S_TEXT/UTF8
Идентификатор кодека/Информация : UTF-8 Plain Text
Заголовок : ENG SRT/UTF8
Язык : English

Меню
00:00:00.000 : en:Otherwise Engaged
00:04:51.374 : en:Declined
00:07:44.964 : en:Lonely Guy
00:13:22.593 : en:Say The Word
00:19:56.946 : en:Giving a Ride
00:23:30.826 : en:Getting a Ride
00:27:32.442 : en:Beyond the Norm
00:30:48.638 : en:Flight Shlub
00:36:00.408 : en:Sexual Release
00:38:58.795 : en:Yes Mania
00:41:43.668 : en:Munchausen By Proxy
00:44:38.676 : en:All-Nighter
00:51:22.496 : en:Potter Party
00:55:16.605 : en:Going Bowling
00:59:25.729 : en:Bump My Fist
01:02:47.722 : en:Getting In Tune
01:08:15.758 : en:Hello, Nebraska
01:13:52.011 : en:Not Crazy About Carl
01:18:50.684 : en:Bad News Breaker
01:21:40.854 : en:Shower Matchups
01:26:08.205 : en:Negative Vibe
01:28:50.992 : en:Free and Wheeling
01:32:58.239 : en:Scared Together
01:36:04.759 : en:Barely Willing
01:36:59.313 : en:End Credits

Свернуть
"Знаете ли Вы, что..."
  • Исполнители главных ролей, Джим Керри и Зои Дешанель, родились в один день, 17 января.
  • Керри специально для роли стал изучать корейский язык с преподавателем Джоном Сонгом, чтобы в фильме реалистично показать высокий уровень владения этим иностранным языком.
  • Джим Керри сам совершил прыжок с моста на тросе.
  • Джим Керри отказался от «стандартного» гонорара за фильм и согласился на «процент» от сборов.
  • Фильм основан на биографической книге Денни Уолласа (Danny Wallace), британского писателя, продюсера и журналиста, который провел 6 месяцев отвечая только «ДА».
  • Рингтон на телефоне Карла и песня играющая, когда Карл едет на мотоцикле - это композиция группы Journey - «Separate Ways (Worlds Apart)».
  • Писатель Дэнни Уоллас, чья книга легла в основу фильма, снялся в роли-камео в сцене «девишника».
  • Прыжок на тросе Джим Керри выполнил с того же моста, что и герои сериала «Клиника» в одной из серий.
  • Когда Пит звонит на телефон Карлу, а потом приходит к нему, Карл смотрит фильм «Пила: Игра на Выживание».
Свернуть
Скриншоты

Изображение
Изображение
Изображение
Изображение
Изображение
Изображение
Изображение
Свернуть
Не в сети
Профиль  
 Добавлено: 2013-02-17 00:55 (спустя 38 минут)
Аватара пользователя
Стаж: 7 лет 4 месяца
Сообщений: 113
Лайков: 1
бррр
_________________
Будь добрее
Не в сети
Профиль  
 Добавлено: 2013-02-28 23:11 (спустя 11 дней)
Аватара пользователя
Стаж: 8 лет 3 месяца
Возраст: 24
Сообщений: 116
Спасибок: 108
Хороший фильм
_________________
Изображение Изображение
Изображение Изображение
Не в сети
Профиль  
 Добавлено: 2013-05-04 10:43 (спустя 2 месяца 3 дня)
Аватара пользователя
Стаж: 4 года 2 месяца
Сообщений: 2
друзья,прошу скорости. :ze_va_et: :ne_ne_ne: :ne_ne_ne:
_________________
Не забывай про ближнего,дабы ближний не стал дальним!
Не в сети
Профиль  
 Добавлено: 2013-06-26 00:31 (спустя 1 месяц 21 день)
Аватара пользователя
Стаж: 8 лет 5 месяцев
Возраст: 23
Сообщений: 83
Спасибок: 56
Джим Керри в своем репертуаре, милый фильм)
_________________
Franz is awesome.
Не в сети
Профиль  
 Добавлено: 2013-12-22 21:26 (спустя 5 месяцев 26 дней)
Аватара пользователя
Стаж: 5 лет 5 месяцев
Возраст: 23
Сообщений: 484
Спасибок: 1403
Лайков: 1
встаньте на раздачу пожалуйста
Не в сети
Профиль  
 Добавлено: 2013-12-29 14:41 (спустя 6 дней)
Аватара пользователя
Стаж: 4 года 1 месяц
Возраст: 21
Сообщений: 1360
Лайков: 7
разадайте

Добавлено спустя 11 минут:
раздайте плиз :bra_vo:
_________________
Если ты это читаешь, значит ты неудачник.
Не в сети
Профиль  
Начать новую темуОтветить на тему  [ Сообщений: 7 ] 
Вы не можете начинать темы
Вы не можете отвечать на сообщения
Вы не можете редактировать свои сообщения
Вы не можете удалять свои сообщения