Правила форума

  • В этом разделе создание новых тем Запрещено.
  • Для создания новых тем пользуйтесь Корневым разделом DVD и HD фильмы.
Начать новую темуОтветить на тему  [ Сообщений: 6 ] 
Торрент файл
Размер: 15.72 GB • Зарегистрирован: 1 год 8 месяцев • Статус: Проверено
Скачан: 470 раз • Желающих скачать: 0 • Поблагодарили: 80 раз
 Раздают: 3  |  0 KB/s  ]   Качают: 0  |  0 KB/s  ] 
Сообщения
 Добавлено: 2015-03-27 22:17
Модератор
Аватара пользователя
Стаж: 7 лет 9 месяцев
Сообщений: 4521
Спасибок: 112875
Лайков: 583
Вселенная Стивена Хокинга

The Theory of Everything


Изображение


Год выпуска: 2014
Страна: Великобритания
Жанр: Драма, мелодрама, биография
Продолжительность: 02:03:25
Перевод: Профессиональный (полное дублирование)
Режиссер: Джеймс Марш
В ролях: Эдди Редмэйн, Фелисити Джонс, Чарли Кокс, Эмили Уотсон, Том Прайор, Софи Перри, Finlay Wright-Stephens, Гарри Ллойд, Элис Орр-Юинг ,Дэвид Тьюлис
Описание: История отношений Стивена Хокинга, гениального космолога, сражённого на заре карьеры "болезнью Лу Герига", и его жены, Джейн Хокинг. Трогательная мелодрама не оставит равнодушным никого и заставит верить в лучшее.
Изображение

Качество: BDRip (1080p)
Формат: MKV
Видео: MPEG-4 AVC, 15500 Кбит/с, 1920x800
Аудио #1: Русский (АС3, 6 ch, 448 Кбит/с) Дублированное - Лицензия
Аудио #2: Русский (АС3, 6 ch, 384 Кбит/с) Авторское одноголосое - Алексей Матвеев aka Doctor Joker.
Аудио #3: Английский (DTS, 6 ch, 1509 Кбит/с) Оригинал

Сохранены оригинальные чаптеры как на Blu-Ray.
MI
Общее
Уникальный идентификатор : 189254390305260215514602690910760071896 (0x8E6111DA73BEED64BC2D1596285DF2D8)
Полное имя : D:\Вселенная Стивена Хокинга.1080p. Ton.mkv
Формат : Matroska
Версия формата : Version 2
Размер файла : 15,7 Гбайт
Продолжительность : 2 ч. 3 м.
Общий поток : 18,2 Мбит/сек
Название фильма : Вселенная Стивена Хокинга. (Tonik)
Дата кодирования : UTC 2015-03-27 18:44:52
Программа кодирования : mkvmerge v6.2.0 ('Promised Land') built on Apr 28 2013 12:22:01
Библиотека кодирования : libebml v1.3.0 + libmatroska v1.4.0
_STATISTICS_WRITING_APP : mkvmerge v7.1.0 ('Good Love') 64bit built on Jul 27 2014 13:06:55
_STATISTICS_WRITING_DATE_UTC : 2015-03-01 11:53:53
_STATISTICS_TAGS : BPS DURATION NUMBER_OF_FRAMES NUMBER_OF_BYTES
DURATION : 01:53:47.321000000
NUMBER_OF_FRAMES : 1357
NUMBER_OF_BYTES : 37738

Видео
Идентификатор : 1
Формат : AVC
Формат/Информация : Advanced Video Codec
Профиль формата : High@L4.1
Параметр CABAC формата : Да
Параметр ReFrames формата : 5 кадров
Идентификатор кодека : V_MPEG4/ISO/AVC
Продолжительность : 2 ч. 3 м.
Битрейт : 15,5 Мбит/сек
Ширина : 1920 пикселей
Высота : 800 пикселей
Соотношение сторон : 2,40:1
Режим частоты кадров : Постоянный
Частота кадров : 23,976 кадра/сек
Цветовое пространство : YUV
Субдискретизация насыщенности : 4:2:0
Битовая глубина : 8 бит
Тип развёртки : Прогрессивная
Бит/(Пиксели*Кадры) : 0.422
Размер потока : 13,4 Гбайт (85%)
Заголовок : Tonik
Библиотека кодирования : x264 core 144 r2525 40bb568
Настройки программы : cabac=1 / ref=5 / deblock=1:-3:-3 / analyse=0x3:0x133 / me=umh / subme=11 / psy=1 / psy_rd=1.00:0.00 / mixed_ref=1 / me_range=48 / chroma_me=1 / trellis=2 / 8x8dct=1 / cqm=0 / deadzone=21,11 / fast_pskip=0 / chroma_qp_offset=-2 / threads=12 / lookahead_threads=2 / sliced_threads=0 / nr=0 / decimate=1 / interlaced=0 / bluray_compat=0 / constrained_intra=0 / bframes=9 / b_pyramid=2 / b_adapt=2 / b_bias=0 / direct=1 / weightb=1 / open_gop=0 / weightp=2 / keyint=250 / keyint_min=23 / scenecut=40 / intra_refresh=0 / rc=crf / mbtree=0 / crf=17.2 / qcomp=0.60 / qpmin=0 / qpmax=69 / qpstep=4 / ip_ratio=1.40 / pb_ratio=1.30 / aq=1:1.00
Язык : English
Default : Да
Forced : Нет
_STATISTICS_WRITING_APP : mkvmerge v7.1.0 ('Good Love') 64bit built on Jul 27 2014 13:06:55
_STATISTICS_WRITING_DATE_UTC : 2015-03-01 11:53:53
_STATISTICS_TAGS : BPS DURATION NUMBER_OF_FRAMES NUMBER_OF_BYTES
DURATION : 02:03:25.406000000
NUMBER_OF_FRAMES : 177552
NUMBER_OF_BYTES : 14707250156

Аудио #1
Идентификатор : 2
Формат : AC-3
Формат/Информация : Audio Coding 3
Расширение режима : CM (complete main)
Параметр Endianness формата : Big
Идентификатор кодека : A_AC3
Продолжительность : 2 ч. 3 м.
Вид битрейта : Постоянный
Битрейт : 448 Кбит/сек
Каналы : 6 каналов
Расположение каналов : Front: L C R, Side: L R, LFE
Частота : 48,0 КГц
Битовая глубина : 16 бит
Метод сжатия : С потерями
Размер потока : 395 Мбайт (2%)
Язык : Russian
Default : Да
Forced : Нет

Аудио #2
Идентификатор : 3
Формат : AC-3
Формат/Информация : Audio Coding 3
Расширение режима : CM (complete main)
Параметр Endianness формата : Big
Идентификатор кодека : A_AC3
Продолжительность : 2 ч. 3 м.
Вид битрейта : Постоянный
Битрейт : 384 Кбит/сек
Каналы : 6 каналов
Расположение каналов : Front: L C R, Side: L R, LFE
Частота : 48,0 КГц
Битовая глубина : 16 бит
Метод сжатия : С потерями
Размер потока : 339 Мбайт (2%)
Заголовок : Матвеев
Язык : Russian
Default : Нет
Forced : Нет

Аудио #3
Идентификатор : 4
Формат : DTS
Формат/Информация : Digital Theater Systems
Режим : 16
Параметр Endianness формата : Big
Идентификатор кодека : A_DTS
Продолжительность : 2 ч. 3 м.
Вид битрейта : Постоянный
Битрейт : 1509 Кбит/сек
Каналы : 6 каналов
Расположение каналов : Front: L C R, Side: L R, LFE
Частота : 48,0 КГц
Битовая глубина : 24 бит
Метод сжатия : С потерями
Размер потока : 1,30 Гбайт (8%)
Язык : English
Default : Нет
Forced : Нет

Текст #1
Идентификатор : 5
Формат : UTF-8
Идентификатор кодека : S_TEXT/UTF8
Идентификатор кодека/Информация : UTF-8 Plain Text
Язык : Russian
Default : Нет
Forced : Нет

Текст #2
Идентификатор : 6
Формат : UTF-8
Идентификатор кодека : S_TEXT/UTF8
Идентификатор кодека/Информация : UTF-8 Plain Text
Язык : English
Default : Нет
Forced : Нет

Меню
00:00:00.000 : :00:00:00.000
00:05:45.386 : :00:05:45.386
00:10:26.167 : :00:10:26.167
00:15:05.195 : :00:15:05.195
00:19:59.072 : :00:19:59.072
00:27:34.027 : :00:27:34.027
00:36:21.220 : :00:36:21.220
00:42:19.495 : :00:42:19.495
00:49:28.090 : :00:49:28.090
00:54:17.170 : :00:54:17.170
01:01:10.333 : :01:01:10.333
01:10:36.065 : :01:10:36.065
01:17:17.633 : :01:17:17.633
01:24:32.776 : :01:24:32.776
01:30:45.648 : :01:30:45.648
01:35:23.509 : :01:35:23.509
01:40:27.479 : :01:40:27.479
01:45:07.592 : :01:45:07.592
01:52:32.996 : :01:52:32.996
01:57:10.565 : :01:57:10.565
Свернуть
"Скриншоты"
Изображение
Изображение
Изображение
Изображение
Свернуть
_________________
Изображение
 dVision нравится это.
Не в сети
Профиль  
 Добавлено: 2015-03-27 22:23 (спустя 5 минут)
Стаж: 5 лет 7 месяцев
Сообщений: 154
Лайков: 35
ну давай раздавай плиз давно ждал
Не в сети
Профиль  
 Добавлено: 2015-04-02 16:33 (спустя 5 дней)
Кинокомментатор
Аватара пользователя
Стаж: 9 лет 1 месяц
Сообщений: 1332
Лайков: 54
сильное кино! очень сильное! и смотрится интересно! стоит ли смотреть? да конечно стоит, в этом году и в правду прекрасные оскаровские фильмы.

8/10
_________________
Я ВКонтакте
Не в сети
Профиль  
 Добавлено: 2015-04-11 11:17 (спустя 8 дней)
Аватара пользователя
Стаж: 9 лет 1 месяц
Возраст: 36
Сообщений: 195
Спасибок: 20
Лайков: 8
Перевод названия как всегда на высоте
Не в сети
Профиль  
 Добавлено: 2015-05-18 22:37 (спустя 1 месяц 7 дней)
Стаж: 7 лет 10 месяцев
Сообщений: 120
Лайков: 7
отличный позитивный фильм
Не в сети
Профиль  
 Добавлено: 2015-05-24 22:17 (спустя 5 дней)
Аватара пользователя
Стаж: 7 лет
Сообщений: 139
Спасибок: 27
Лайков: 1
Бесконечно скучное , затянутое нудьё. Не тратте время
_________________
Изображение
Не в сети
Профиль  
Начать новую темуОтветить на тему  [ Сообщений: 6 ] 
Вы не можете начинать темы
Вы не можете отвечать на сообщения
Вы не можете редактировать свои сообщения
Вы не можете удалять свои сообщения