Правила форума

  • В этом разделе создание новых тем Запрещено.
  • Для создания новых тем пользуйтесь Корневым разделом DVD и HD фильмы.
Начать новую темуОтветить на тему  [ Сообщений: 2 ] 
Торрент файл
Размер: 15.87 GB • Зарегистрирован: 4 года 7 месяцев • Статус: Проверено
Скачан: 122 раза • Желающих скачать: 0 • Поблагодарили: 13 раз
 Раздают: 1  |  0 KB/s  ]   Качают: 0  |  0 KB/s  ] 
Сообщения
 Добавлено: 2012-04-14 15:23
Модератор релиз-группы
Аватара пользователя
Стаж: 9 лет 1 месяц
Возраст: 97
Сообщений: 11659
Спасибок: 6530
Лайков: 269
ВСПОМНИТЬ ВСЁ / TOTAL RECALL

Изображение

Год выпуска: 1990
Страна: США
Жанр: Фантастика, Боевик, Приключения
Продолжительность: 01:53:36
Перевод: Профессиональный (двухголосый, закадровый) Лицензия «CP Digital»
Профессиональный (многоголосый, закадровый) «Супербит»

Режиссер: Пол Верховен

В ролях: Арнольд Шварценеггер, Шэрон Стоун, Рэйчел Тикотин, Ронни Кокс, Майкл Айронсайд, Маршалл Белл, Мэл Джонсон мл., Майкл Чемпион, Рой Броксмит, Рэй Бэйкер

Описание: В 2048 году жизнь простого рабочего парня Дага Куэйда скучна и однообразна. Поэтому чтобы хоть как-то поразвлечься, он решает воспользоваться услугами некой компании, которая за определенную плату посылает в его мозг импульсы создающие полную иллюзию того, что он - другой человек живущий другой, интересной жизнью.
Все бы хорошо, но после сеанса, Дагу совершенно невозможно понять, кто же он на самом деле, простой работяга или владеющий всеми боевыми искусствами и видами оружия спецназовец. Его боятся, его хотят убить, на него открыт сезон охоты, даже любимая жена, пытается свернуть ему шею. Теперь, чтобы выжить в этой ситуации, ему необходимо вспомнить, вспомнить все…
Изображение
Качество: BDRemux 1080p
Формат: mkv
Видео кодек: MPEG-4 AVC
Аудио кодек: DTS
Видео: MPEG-4 AVC / 17717 kbps / 1920:1080p / 23.976 fps / 16:9 / 1.85:1 / High Profile 4.1
Аудио: Russian DTS 2.0 / 48 kHz / 768 kbps / 16-bit Лицензия «CP Digital»
Аудио: Russian DTS 5.1 / 48 kHz / 1509 kbps / 16-bit «Супербит»
скриншоты
Изображение

Изображение

Изображение

Изображение
Свернуть
Mi
Format : Matroska
Format version : Version 2
File size : 15.9 GiB
Duration : 1h 53mn
Overall bit rate mode : Variable
Overall bit rate : 20.0 Mbps
Encoded date : UTC 2012-04-14 11:26:56
Writing application : mkvmerge v5.5.0 ('Healer') built on Apr 6 2012 21:43:24
Writing library : libebml v1.2.3 + libmatroska v1.3.0

Video
ID : 1
Format : AVC
Format/Info : Advanced Video Codec
Format profile : High@L4.1
Format settings, CABAC : Yes
Format settings, ReFrames : 2 frames
Codec ID : V_MPEG4/ISO/AVC
Duration : 1h 53mn
Bit rate mode : Variable
Bit rate : 17.3 Mbps
Width : 1 920 pixels
Height : 1 080 pixels
Display aspect ratio : 16:9
Frame rate : 23.976 fps
Color space : YUV
Chroma subsampling : 4:2:0
Bit depth : 8 bits
Scan type : Progressive
Bits/(Pixel*Frame) : 0.349
Stream size : 13.8 GiB (87%)
Default : Yes
Forced : No

Audio #1
ID : 2
Format : DTS
Format/Info : Digital Theater Systems
Codec ID : A_DTS
Duration : 1h 53mn
Bit rate mode : Constant
Bit rate : 755 Kbps
Channel(s) : 2 channels
Channel positions : Front: L R
Sampling rate : 48.0 KHz
Bit depth : 16 bits
Compression mode : Lossy
Stream size : 613 MiB (4%)
Language : Russian
Default : Yes
Forced : No

Audio #2
ID : 3
Format : DTS
Format/Info : Digital Theater Systems
Codec ID : A_DTS
Duration : 1h 53mn
Bit rate mode : Constant
Bit rate : 1 510 Kbps
Channel(s) : 6 channels
Channel positions : Front: L C R, Side: L R, LFE
Sampling rate : 48.0 KHz
Bit depth : 16 bits
Compression mode : Lossy
Stream size : 1.20 GiB (8%)
Language : Russian
Default : No
Forced : No

Свернуть
_________________
Изображение
Не в сети
Профиль  
 Добавлено: 2012-08-10 07:55 (спустя 3 месяца 25 дней)
Top-releaser
Аватара пользователя
Стаж: 8 лет 8 месяцев
Сообщений: 536
Спасибок: 2973
Лайков: 4
раздадим?
Не в сети
Профиль  
Начать новую темуОтветить на тему  [ Сообщений: 2 ] 
Вы не можете начинать темы
Вы не можете отвечать на сообщения
Вы не можете редактировать свои сообщения
Вы не можете удалять свои сообщения