Правила форума

  • В этом разделе создание новых тем Запрещено.
  • Для создания новых тем пользуйтесь Корневым разделом DVD и HD фильмы.
Начать новую темуОтветить на тему  [ Сообщений: 4 ] 
Торрент файл
Размер: 18.09 GB • Зарегистрирован: 4 года 4 месяца • Статус: T Временный релиз
Скачан: 40 раз • Желающих скачать: 0 • Поблагодарили: 9 раз
 Раздают: 0  |  0 KB/s  ]   Качают: 0  |  0 KB/s  ] 
 Полного источника не было 1 год 7 месяцев 
Сообщения
 Добавлено: 2012-07-17 16:26
Модератор релиз-группы
Аватара пользователя
Стаж: 9 лет 1 месяц
Возраст: 97
Сообщений: 11660
Спасибок: 6534
Лайков: 269
Встреча со злом / Абсолютное зло / Meeting Evil

Изображение


Страна: США
Жанр: триллер, драма, криминал, детектив
Год выпуска: 2012
Продолжительность: 01:29:06
Перевод: Любительский (двухголосый закадровый) Команда "Чип и Дейл"
Оригинальная аудиодорожка: английская
Cубтитры: английские

Режиссер: Крис Фишер / Chris Fisher

В ролях: Сэмюэл Л. Джексон, Люк Уилсон, Лесли Бибб, Пейтон Лист, Трейси Томс, Райан Ли, Мьюз Уотсон, Дж.Д. Эвермор, Джиллиан Басерсон, Джейсон Алан Смит


Описание: Разочарованный жизнью молодой семьянин Джон открывает дверь таинственному незнакомцу Ричи. С этой минуты, сам того не желая, Джон становится участником убийственной поездки, которая преображает его из человека со слабой волей в отчаянного героя, готового пойти на все, чтобы защитить свою семью.


Изображение

Качество: BDRemux 1080p
Формат: MKV
Видео: MPEG-4 AVC / NTSC 16:9 / 1920x1080 (1.78:1) / 26500 kbps / 23.976 fps / 0.534 bit/pixel
Аудио 1: Russian / AC3 / 48 kHz / 5.1 Ch / 384 kbps / DVO
Аудио 2: English / DTS-HD Master Audio / 5.1 Ch / 48 kHz / 3250 kbps / 24-bit (DTS Core: 5.1 / 48 kHz / 1510 kbps / 24-bit)
Субтитры: англ.


Скриншоты

Изображение

Изображение

Изображение
Свернуть
Mi
Format : Matroska
Format version : Version 2
File size : 18.1 GiB
Duration : 1h 29mn
Overall bit rate mode : Variable
Overall bit rate : 29.1 Mbps
Movie name : Meeting Evil
Encoded date : UTC 2012-07-16 08:35:57
Writing application : mkvmerge v5.6.0 ('Kenya Kane') built on May 27 2012 16:44:04
Writing library : libebml v1.2.3 + libmatroska v1.3.0

Video
ID : 1
Format : AVC
Format/Info : Advanced Video Codec
Format profile : High@L4.1
Format settings, CABAC : Yes
Format settings, ReFrames : 2 frames
Codec ID : V_MPEG4/ISO/AVC
Duration : 1h 29mn
Bit rate mode : Variable
Bit rate : 26.5 Mbps
Width : 1 920 pixels
Height : 1 080 pixels
Display aspect ratio : 16:9
Frame rate : 23.976 fps
Color space : YUV
Chroma subsampling : 4:2:0
Bit depth : 8 bits
Scan type : Progressive
Bits/(Pixel*Frame) : 0.534
Stream size : 16.5 GiB (91%)
Language : English
Default : Yes
Forced : No

Audio #1
ID : 2
Format : AC-3
Format/Info : Audio Coding 3
Mode extension : CM (complete main)
Format settings, Endianness : Big
Codec ID : A_AC3
Duration : 1h 29mn
Bit rate mode : Constant
Bit rate : 384 Kbps
Channel(s) : 6 channels
Channel positions : Front: L C R, Side: L R, LFE
Sampling rate : 48.0 KHz
Bit depth : 16 bits
Compression mode : Lossy
Stream size : 245 MiB (1%)
Title : DVO
Language : Russian
Default : Yes
Forced : No

Audio #2
ID : 3
Format : DTS
Format/Info : Digital Theater Systems
Format profile : MA / Core
Codec ID : A_DTS
Duration : 1h 29mn
Bit rate mode : Variable
Bit rate : 1 561 Kbps / 1 510 Kbps
Channel(s) : 6 channels
Channel positions : Front: L C R, Side: L R, LFE
Sampling rate : 48.0 KHz
Bit depth : 24 bits
Compression mode : Lossless / Lossy
Title : Original
Language : English
Default : No
Forced : No

Text
ID : 4
Format : UTF-8
Codec ID : S_TEXT/UTF8
Codec ID/Info : UTF-8 Plain Text
Title : Original
Language : English
Default : No
Forced : No

Menu
00:00:00.000 : en:Chapter 00
00:04:34.190 : en:Chapter 01
00:10:50.608 : en:Chapter 02
00:16:17.059 : en:Chapter 03
00:21:29.162 : en:Chapter 04
00:25:44.793 : en:Chapter 05
00:30:27.033 : en:Chapter 06
00:37:13.272 : en:Chapter 07
00:42:01.310 : en:Chapter 08
00:45:43.323 : en:Chapter 09
00:52:52.377 : en:Chapter 10
00:55:39.294 : en:Chapter 11
01:00:18.072 : en:Chapter 12
01:04:46.883 : en:Chapter 13
01:11:45.134 : en:Chapter 14
01:19:17.544 : en:Chapter 15

Свернуть
_________________
Изображение
Не в сети
Профиль  
 Добавлено: 2012-07-18 18:01 (спустя 1 день 1 час)
Аватара пользователя
Стаж: 9 лет
Сообщений: 167
Спасибок: 38
давай в двд
Не в сети
Профиль  
 Добавлено: 2012-07-18 18:04 (спустя 3 минуты)
Модератор релиз-группы
Аватара пользователя
Стаж: 9 лет 1 месяц
Возраст: 97
Сообщений: 11660
Спасибок: 6534
Лайков: 269
что такое двд ??? :sh_ok:
_________________
Изображение
Не в сети
Профиль  
 Добавлено: 2012-07-18 22:53 (спустя 4 часа)
Стаж: 7 лет 4 месяца
Сообщений: 165
Лайков: 6

Артурыч:

что такое двд ??? :sh_ok:
это как ВДВ, но страшнее :-D
Не в сети
Профиль  
Начать новую темуОтветить на тему  [ Сообщений: 4 ] 
Вы не можете начинать темы
Вы не можете отвечать на сообщения
Вы не можете редактировать свои сообщения
Вы не можете удалять свои сообщения