Правила форума

  • В этом разделе создание новых тем Запрещено.
  • Для создания новых тем пользуйтесь Корневым разделом DVD и HD фильмы.
Начать новую темуОтветить на тему  [ Сообщений: 2 ] 
Торрент файл
Размер: 8.23 GB • Зарегистрирован: 5 лет 3 месяца • Статус: Проверено
Скачан: 66 раз • Желающих скачать: 0 • Поблагодарили: 10 раз
 Раздают: 0  |  0 KB/s  ]   Качают: 0  |  0 KB/s  ] 
 Полного источника не было 3 года 2 месяца 
Сообщения
 Добавлено: 2011-09-04 08:23
Модератор релиз-группы
Аватара пользователя
Стаж: 9 лет 1 месяц
Возраст: 97
Сообщений: 11660
Спасибок: 6534
Лайков: 269
Вторжение: Битва за рай / Tomorrow, When the War Began


Изображение


Год выпуска: 2010
Страна: США, Австралия
Слоган: «Where Were You When Everything Changed?»
Жанр: Боевик, Драма, Приключения
Продолжительность: 01:43:40
Перевод: Профессиональный (дублированный)
Оригинальная звуковая дорожка
Cубтитры: русские(forced,full),английские

Режиссёр: Стюарт Битти
В ролях: Линкольн Льюис, Рэйчел Херд-Вуд, Кейтлин Стэйси, Колин Фрилз, Дениз Акдениз, Фиби Тонкин, Крис Пэнг, Эшли Каммингс, Эндрю Райан, Пек Анг
Описание: Группа подростков возвращаются домой после похода и обнаруживают, что их дома захвачены врагом, а все остальные люди взяты в заложники или убиты.
Мировая премьера: 8 августа 2010
Премьера в России: 23 февраля 2011, «Централ Партнершип»
Изображение 5.121 2 177
Изображение
Качество: BDRip
Формат: MKV
Видео кодек: MPEG-4 (AVC)
Аудио кодек: AC3 (Dolby Digital)
Видео: AVC,1920x800,9 410 Kbps,24.000 fps
Аудио #1: Russian: 48 kHz, AC3, 3/2 (L,C,R,l,r) + LFE ch, ~448.00 kbps avg
Аудио #1: English: 48 kHz, DTS, 3/2 (L,C,R,l,r) + LFE ch, ~1536.00 kbps avg
Cубтитры: русские(forced,full),английские
скриншоты
Изображение

Изображение

Изображение

Изображение

Изображение

Свернуть

Mi
Format : Matroska
Format version : Version 2
File size : 8.23 GiB
Duration : 1h 43mn
Overall bit rate : 11.4 Mbps
Movie name : -Talian-
Encoded date : UTC 2011-08-24 04:13:35
Writing application : mkvmerge v3.3.0 ('Language') сборка от May 14 2010 17:11:50
Writing library : libebml v0.8.0 + libmatroska v0.9.0

Video
ID : 1
Format : AVC
Format/Info : Advanced Video Codec
Format profile : High@L4.1
Format settings, CABAC : Yes
Format settings, ReFrames : 5 frames
Codec ID : V_MPEG4/ISO/AVC
Duration : 1h 43mn
Bit rate : 9 410 Kbps
Width : 1 920 pixels
Height : 800 pixels
Display aspect ratio : 2.40:1
Frame rate : 24.000 fps
Color space : YUV
Chroma subsampling : 4:2:0
Bit depth : 8 bits
Scan type : Progressive
Bits/(Pixel*Frame) : 0.255
Stream size : 6.65 GiB (81%)
Title : Tomorrow.When.the.War.Began.2010.BluRay.1080p.DTS.x264-CHD
Writing library : x264 core 112 r1834 a51816a
Encoding settings : cabac=1 / ref=5 / deblock=1:-3:-3 / analyse=0x3:0x113 / me=umh / subme=9 / psy=1 / psy_rd=1.10:0.15 / mixed_ref=1 / me_range=32 / chroma_me=1 / trellis=2 / 8x8dct=1 / cqm=0 / deadzone=21,11 / fast_pskip=0 / chroma_qp_offset=-2 / threads=12 / sliced_threads=0 / nr=0 / decimate=1 / interlaced=0 / constrained_intra=0 / bframes=6 / b_pyramid=2 / b_adapt=2 / b_bias=0 / direct=3 / weightb=1 / open_gop=0 / weightp=2 / keyint=250 / keyint_min=24 / scenecut=40 / intra_refresh=0 / rc_lookahead=40 / rc=2pass / mbtree=0 / bitrate=9410 / ratetol=1.0 / qcomp=0.70 / qpmin=0 / qpmax=51 / qpstep=4 / cplxblur=20.0 / qblur=0.5 / vbv_maxrate=45000 / vbv_bufsize=40000 / ip_ratio=1.40 / pb_ratio=1.30 / aq=1:0.90 / nal_hrd=none
Language : English

Audio #1
ID : 2
Format : AC-3
Format/Info : Audio Coding 3
Mode extension : CM (complete main)
Codec ID : A_AC3
Duration : 1h 43mn
Bit rate mode : Constant
Bit rate : 448 Kbps
Channel(s) : 6 channels
Channel positions : Front: L C R, Side: L R, LFE
Sampling rate : 48.0 KHz
Bit depth : 16 bits
Compression mode : Lossy
Stream size : 332 MiB (4%)
Title : DUB
Language : Russian

Audio #2
ID : 3
Format : DTS
Format/Info : Digital Theater Systems
Codec ID : A_DTS
Duration : 1h 43mn
Bit rate mode : Constant
Bit rate : 1 510 Kbps
Channel(s) : 6 channels
Channel positions : Front: L C R, Side: L R, LFE
Sampling rate : 48.0 KHz
Bit depth : 24 bits
Compression mode : Lossy
Stream size : 1.09 GiB (13%)
Title : Original
Language : English

Text #1
ID : 4
Format : UTF-8
Codec ID : S_TEXT/UTF8
Codec ID/Info : UTF-8 Plain Text
Title : Sub-forcced
Language : Russian

Text #2
ID : 5
Format : UTF-8
Codec ID : S_TEXT/UTF8
Codec ID/Info : UTF-8 Plain Text
Title : Sub-full
Language : Russian

Text #3
ID : 6
Format : UTF-8
Codec ID : S_TEXT/UTF8
Codec ID/Info : UTF-8 Plain Text
Title : Sub
Language : English

Menu
00:00:00.000 : 00:00:00.000
00:09:53.375 : 00:09:53.375
00:17:47.333 : 00:17:47.333
00:22:41.542 : 00:22:41.542
00:32:42.500 : 00:32:42.500
00:42:02.000 : 00:42:02.000
00:49:56.292 : 00:49:56.292
01:00:45.125 : 01:00:45.125
01:10:23.250 : 01:10:23.250
01:15:52.292 : 01:15:52.292
01:20:34.292 : 01:20:34.292
01:27:29.833 : 01:27:29.833

Свернуть
_________________
Изображение
Не в сети
Профиль  
 Добавлено: 2011-09-13 13:25 (спустя 9 дней)
Аватара пользователя
Стаж: 8 лет 1 месяц
Возраст: 31
Сообщений: 86
Спасибок: 5
Как фильм?
Не в сети
Профиль  
Начать новую темуОтветить на тему  [ Сообщений: 2 ] 
Вы не можете начинать темы
Вы не можете отвечать на сообщения
Вы не можете редактировать свои сообщения
Вы не можете удалять свои сообщения