Правила форума

  • В этом разделе создание новых тем Запрещено.
  • Для создания новых тем пользуйтесь Корневым разделом DVD и HD фильмы.
Начать новую темуОтветить на тему  [ Сообщений: 4 ] 
Торрент файл
Размер: 8.44 GB • Зарегистрирован: 5 лет 8 месяцев • Статус: Проверено
Скачан: 37 раз • Желающих скачать: 0 • Поблагодарили: 15 раз
 Раздают: 0  |  0 KB/s  ]   Качают: 0  |  0 KB/s  ] 
 Полного источника не было 11 дней 
Сообщения
 Добавлено: 2011-02-28 20:10
Пользователь забанен
Аватара пользователя
Стаж: 5 лет 10 месяцев
Возраст: 21
Сообщений: 14
Спасибок: 102
Взвод

Platoon

Изображение


Год выпуска: 1986
Страна: США, Великобритания
Слоган: «The first casualty of war is innocence.»
Жанр: боевик, драма, военный
Продолжительность: 01:59:50

Режиссёр: Оливер Стоун
Сценарист: Оливер Стоун
Продюсер: Джон Дэйли, Дерек Гибсон, А. Китман Хо
Оператор: Роберт Ричардсон
Композитор: Жорж Дельрю, Сэмюэл Барбер, Стивен Фостер
В ролях: Том Беренджер, Уиллем Дефо, Чарли Шин, Форест Уитакер, Франческо Куинн, Джон К. МакГинли, Ричард Эдсон, Кевин Диллон, Реджи Джонсон, Кит Дэвид
Описание: В сентябре 1967 года куда-то в приграничный район между Вьетнамом и Камбоджей прибыл рядовой 25-го пехотного полка Крис Тэйлор. Прибыл, чтобы своими глазами увидеть, как выглядит подлинный Ад. Не потусторонний, вымышленный, сочиненный писателями или художниками, а натуральный, здешний, вполне земной Ад, на территории которого схлестнулись друг с другом сержант Боб Барнс и сержант Илайес Гродин. Они тоже думали, что будут воевать с партизанами-вьетконговцами, но оказалось, что иногда приходится драться со своими…
Рейтинг MPAA: Рейтинг R (Подростки до 17 лет допускаются на фильм только в сопровождении одного из родителей)
Мировая премьера: 19 декабря 1986
Бюджет: $6 000 000
Кассовые сборы: $138 530 565
Изображение 8.134 (11 000) Top: №184 

Качество: BDRip, 720p
Формат: MKV
Видео кодек: H264 (AVC)
Аудио кодек: AC3 (Dolby Digital)
Видео: AVC; 1280x696 (16:9); 6219 Kbps; 23,976 fps; 0,291 bit / pixel
Аудио #1: Russian; AC3; 448 Kbps; CBR; 6 ch [Профессиональный, (многоголосый, закадровый)]
Аудио #2: Russian; AC3; 192 Kbps; CBR; 2 ch [Профессиональный , (полное дублирование)]
Аудио #3: Russian; DTS; 1509 Kbps; CBR; 6 ch; 24 bit [Авторский (одноголосый) , Гоблин ]
Аудио #4: English; DTS; 1509 Kbps; CBR; 6 ch; 16 bit [Оригинал]
Субтитры #1: Russian (UTF-8)
Субтитры #2: English (UTF-8)

Скриншоты
Изображение
Изображение
Изображение
Изображение
Свернуть

Знаете ли Вы, что...
Изначально Чарли Шин был отвергнут создателями в силу своего возраста и роль предложили его старшему брату Эмилио Эстевезу. Но у проекта возникли финансовые трудности и сьёмки отложили на два года. Когда сьёмки возобновились Эмилио уже был связан другими обстоятельствами и Чарли получил роль.
От роли рядового Криса Тейлора отказались Киану Ривз и Кайл МакЛохлан.
Оливер Стоун сыграл небольшое камео-офицера, находящегося в бункере.
Закадровый текст в картине читает Чарли Шин, также, как это делал его отец (Мартин Шин) в «Апокалипсисе сегодня».
Перед началом сьёмок все актёры прошли 13-ти дневную военную подготовку.
На каске героя Джонни Деппа выведено имя его тогдашней спутницы Шерелин Фенн. Её инициалы выгравированы на гитаре героя Деппа.
Перед съёмкой сцены, где солдаты курят травку, актёрам в самом деле пришлось попробовать её. Но, по словам Уиллема Дефо, к моменту сьёмок весь эффект от наркотика пропал и актёры чуствовали себя ужасно.
На рекламном плакате фильма буквы «o» в названии заменены личными солдатскими жетонами армии США, известными среди солдат как «собачьи жетоны».
Министерство обороны США отказалось оказывать какую-либо помощь в создании фильма, посчитав его «непатриотическим».
В конце фильма напалмовую атаку производит истребитель F-5 ВВС Филиппин.
Ночное сражение, происходящее в конце фильма, основано на реально имевшем место сражении за американскую базу огневой поддержки Burt (2 января 1968), в котором Оливер Стоун принимал участие.
Спустя два года после выхода фильма была выпущена компьютерная игра Platoon для ряда платформ, разработанная по мотивам фильма.
На каске Тейлора написано: «When I die Bury me Upside down So the world Can kiss my ass».
Свернуть
MediaInfo
Общее
Уникальный идентификатор : 249877960096789137944227378418939832612 (0xBBFCBE9CBF6B0BAEA4B3FA4F3BDFA924)
Полное имя : E:\Фильмы\Взвод - Platoon [HD] Лицензия.mkv
Формат : Matroska
Размер файла : 8,44 Гбайт
Продолжительность : 1 ч. 59 м.
Общий поток : 10,1 Мбит/сек
Название фильма : Взвод (1986)
Дата кодирования : UTC 2010-06-13 23:40:32
Программа кодирования : mkvmerge v2.4.1 ('Use Me') built on Dec 5 2008 15:43:32
Библиотека кодирования : libebml v0.7.7 + libmatroska v0.8.1

Видео
Идентификатор : 1
Формат : AVC
Формат/Информация : Advanced Video Codec
Профиль формата : High@L4.1
Параметр CABAC формата : Да
Параметр ReFrames формата : 8 кадры
Идентификатор кодека : V_MPEG4/ISO/AVC
Продолжительность : 1 ч. 59 м.
Битрейт : 6415 Кбит/сек
Ширина : 1280 пикс.
Высота : 696 пикс.
Соотношение сторон : 16:9
Частота кадров : 23,976 кадр/сек
Цветовое пространство : YUV
Подвыборка цветности : 4:2:0
Битовая глубина : 8 бит
Тип развёртки : Прогрессивная
Бит/(Пиксели*Кадры) : 0.300
Размер потока : 5,21 Гбайт (62%)
Заголовок : Vzvod (1986) [encoder...Yoker]
Библиотека кодирования : x264 core 92 r1510 33d382a
Настройки программы : cabac=1 / ref=8 / deblock=1:0:0 / analyse=0x3:0x133 / me=umh / subme=9 / psy=1 / psy_rd=1.00:0.00 / mixed_ref=1 / me_range=32 / chroma_me=1 / trellis=2 / 8x8dct=1 / cqm=0 / deadzone=21,11 / fast_pskip=0 / chroma_qp_offset=-2 / threads=6 / sliced_threads=0 / nr=0 / decimate=1 / interlaced=0 / constrained_intra=0 / bframes=3 / b_pyramid=2 / b_adapt=2 / b_bias=0 / direct=3 / wpredb=1 / wpredp=2 / keyint=250 / keyint_min=25 / scenecut=40 / intra_refresh=0 / rc_lookahead=50 / rc=2pass / mbtree=1 / bitrate=6415 / ratetol=1.0 / qcomp=0.60 / qpmin=10 / qpmax=51 / qpstep=4 / cplxblur=20.0 / qblur=0.5 / ip_ratio=1.40 / aq=1:1.00
Язык : English

Аудио #1
Идентификатор : 2
Формат : AC-3
Формат/Информация : Audio Coding 3
Расширение режима : CM (complete main)
Идентификатор кодека : A_AC3
Продолжительность : 1 ч. 59 м.
Вид битрейта : Постоянный
Битрейт : 448 Кбит/сек
Канал(ы) : 6 канала(ов)
Расположение каналов : Front: L C R, Side: L R, LFE
Частота : 48,0 КГц
Битовая глубина : 16 бит
Метод сжатия : С потерями
Размер потока : 384 Мбайт (4%)
Заголовок : Mnogogolosyj АС3, 6 ch, 448 Кбит/с
Язык : Russian

Аудио #2
Идентификатор : 3
Формат : AC-3
Формат/Информация : Audio Coding 3
Расширение режима : CM (complete main)
Идентификатор кодека : A_AC3
Продолжительность : 1 ч. 59 м.
Вид битрейта : Постоянный
Битрейт : 192 Кбит/сек
Канал(ы) : 2 канала(ов)
Расположение каналов : Front: L R
Частота : 48,0 КГц
Битовая глубина : 16 бит
Метод сжатия : С потерями
Размер потока : 165 Мбайт (2%)
Заголовок : Dubljazh (Varus Video)АС3, 2 ch, 192 Кбит/с
Язык : Russian

Аудио #3
Идентификатор : 4
Формат : DTS
Формат/Информация : Digital Theater Systems
Идентификатор кодека : A_DTS
Продолжительность : 1 ч. 59 м.
Вид битрейта : Постоянный
Битрейт : 1510 Кбит/сек
Канал(ы) : 6 канала(ов)
Расположение каналов : Front: L C R, Side: L R, LFE
Частота : 48,0 КГц
Битовая глубина : 24 бит
Метод сжатия : С потерями
Размер потока : 1,26 Гбайт (15%)
Заголовок : Goblin [Polnyj Pe] DTS, 6 ch, 1536 Кбит/с
Язык : Russian

Аудио #4
Идентификатор : 5
Формат : DTS
Формат/Информация : Digital Theater Systems
Идентификатор кодека : A_DTS
Продолжительность : 1 ч. 59 м.
Вид битрейта : Постоянный
Битрейт : 1510 Кбит/сек
Канал(ы) : 6 канала(ов)
Расположение каналов : Front: L C R, Side: L R, LFE
Частота : 48,0 КГц
Битовая глубина : 16 бит
Метод сжатия : С потерями
Размер потока : 1,26 Гбайт (15%)
Заголовок : Original DTS, 6 ch, 1536 Кбит/с
Язык : English

Текст #1
Идентификатор : 6
Формат : UTF-8
Идентификатор кодека : S_TEXT/UTF8
Идентификатор кодека/Информация : UTF-8 Plain Text
Язык : Russian

Текст #2
Идентификатор : 7
Формат : UTF-8
Идентификатор кодека : S_TEXT/UTF8
Идентификатор кодека/Информация : UTF-8 Plain Text
Язык : English

Меню
00:00:00.000 : :
00:02:58.136 : :
00:05:27.535 : :
00:08:15.536 : :
00:11:29.480 : :
00:13:14.668 : :
00:18:44.123 : :
00:22:45.864 : :
00:26:27.002 : :
00:30:00.423 : :
00:32:19.896 : :
00:36:31.731 : :
00:43:08.460 : :
00:45:10.416 : :
00:50:33.905 : :
00:55:50.555 : :
00:58:57.158 : :
01:01:51.582 : :
01:03:05.865 : :
01:04:46.382 : :
01:11:03.550 : :
01:15:27.773 : :
01:16:49.438 : :
01:21:08.280 : :
01:26:43.323 : :
01:29:22.023 : :
01:32:26.499 : :
01:37:22.795 : :
01:43:41.131 : :
01:46:50.779 : :
01:50:17.652 : :
01:55:36.012 : :
Свернуть


Последний раз редактировалось Pain. 2011-04-01 21:16, всего редактировалось 7 раз(а).
Не в сети
Профиль  
 Добавлено: 2011-03-15 19:10 (спустя 14 дней)
Пользователь забанен
Аватара пользователя
Стаж: 5 лет 10 месяцев
Возраст: 21
Сообщений: 14
Спасибок: 102
Раздача начнется с первого апреля! так как у меня проблемы с нэтом...
Не в сети
Профиль  
 Добавлено: 2011-03-26 01:29 (спустя 10 дней)
Стаж: 7 лет 8 месяцев
Сообщений: 8
ждёмс(
Не в сети
Профиль  
 Добавлено: 2013-06-26 21:34 (спустя 2 года 3 месяца)
Стаж: 7 лет 9 месяцев
Сообщений: 120
Лайков: 7
Раздавать кто-нибудь будет? второй день тишина...
Не в сети
Профиль  
Начать новую темуОтветить на тему  [ Сообщений: 4 ] 
Вы не можете начинать темы
Вы не можете отвечать на сообщения
Вы не можете редактировать свои сообщения
Вы не можете удалять свои сообщения