Правила форума

  • В этом разделе создание новых тем Запрещено.
  • Для создания новых тем пользуйтесь Корневым разделом DVD и HD фильмы.
Начать новую темуОтветить на тему  [ Сообщений: 2 ] 
Торрент файл
Размер: 8.65 GB • Зарегистрирован: 4 года • Статус: Проверено
Скачан: 143 раза • Желающих скачать: 0 • Поблагодарили: 50 раз
 Раздают: 0  |  0 KB/s  ]   Качают: 0  |  0 KB/s  ] 
 Полного источника не было 1 год 3 месяца 
Сообщения
 Добавлено: 2012-12-08 06:54
Руководитель релиз-группы
Аватара пользователя
Стаж: 7 лет 5 месяцев
Возраст: 31
Сообщений: 3406
Спасибок: 46729
Лайков: 5
Изображение

Я, Алекс Кросс
Alex Cross


Год выпуска: 2012
Страна: США
Слоган: «Жестокое преступление. Извращенный убийца. Смертельная игра»
Жанр: боевик, триллер, криминал, детектив
Продолжительность: 01:41:23
Перевод: Профессиональный (полное дублирование) [лицензия]
Режиссер: Роб Коэн
Сценарий: Марк Мосс, Керри Уильямсон, Джеймс Паттерсон
Продюсер: Билл Блок, Стив Бауэн, Рэндолл Эмметт, Леопольдо Гоут, Пол Хэнсон
В ролях: Тайлер Перри, Мэттью Фокс, Эдвард Бёрнс, Рэйчел Николс, Жан Рено, Кармен Эджого, Сисели Тайсон, Джон К. МакГинли, Джанкарло Эспозито, Чэд Линдберг, Кристофер Стадулис, Яра Шахиди
Бюджет: $35 000 000
Сборы в США: $25 499 170
Сборы в России: $1 869 854
Описание: Знаменитый детектив Алекс Кросс идет по следам серийного убийцы, и с удивлением обнаруживает, что почерк преступника соответствует манере действий безжалостного маньяка по прозвищу Мясник. Десять лет назад Кросс сорвал исполнение одного из его смертельных контрактов, за что Мясник убил беременную жену полицейского и бесследно исчез. Неужели он вернулся? Кросс вступает в смертельную игру.
Изображение
MPAA: Изображение
Мировая премьера: 15 октября 2012
Релиз на DVD: 18 декабря 2012, «Парадиз Медиа»
Релиз на Blu-ray: 18 декабря 2012, «Парадиз Медиа»
Раздача группы: Изображение
Качество: BDRip, 720p
Формат: Matroska
Видео: AVC; 1280x720 (16:9); 11326 Kbps; 24 fps; 0,512 bit/pixel
Аудио: AC3; 640 Kbps; CBR; 6 ch Russian
mediainfo
Формат : Matroska
Версия формата : Version 2
Размер файла : 8,65 Гбайт
Продолжительность : 1 ч. 41 м.
Общий поток : 12,2 Мбит/сек
Дата кодирования : UTC 2012-12-07 19:05:02
Программа кодирования : mkvmerge v5.2.0 ('I can't explain') built on Dec 18 2011 18:12:03
Библиотека кодирования : libebml v1.2.3 + libmatroska v1.3.0

Видео
Идентификатор : 1
Формат : AVC
Формат/Информация : Advanced Video Codec
Профиль формата : High@L4.1
Параметр CABAC формата : Да
Параметр ReFrames формата : 5 кадров
Идентификатор кодека : V_MPEG4/ISO/AVC
Продолжительность : 1 ч. 41 м.
Битрейт : 11,3 Мбит/сек
Ширина : 1280 пикселей
Высота : 720 пикселей
Соотношение сторон : 16:9
Частота кадров : 24,000 кадра/сек
Цветовое пространство : YUV
Субдискретизация насыщенности : 4:2:0
Битовая глубина : 8 бит
Тип развёртки : Прогрессивная
Бит/(Пиксели*Кадры) : 0.512
Размер потока : 8,02 Гбайт (93%)
Библиотека кодирования : x264 core 125 r2200 999b753
Настройки программы : cabac=1 / ref=5 / deblock=1:-1:-1 / analyse=0x3:0x113 / me=hex / subme=7 / psy=1 / psy_rd=1.00:0.00 / mixed_ref=1 / me_range=16 / chroma_me=1 / trellis=1 / 8x8dct=1 / cqm=0 / deadzone=21,11 / fast_pskip=0 / chroma_qp_offset=-2 / threads=12 / lookahead_threads=2 / sliced_threads=0 / nr=0 / decimate=1 / interlaced=0 / bluray_compat=0 / constrained_intra=0 / bframes=3 / b_pyramid=2 / b_adapt=1 / b_bias=0 / direct=3 / weightb=1 / open_gop=0 / weightp=2 / keyint=240 / keyint_min=24 / scenecut=40 / intra_refresh=0 / rc=crf / mbtree=0 / crf=18.0 / qcomp=0.60 / qpmin=0 / qpmax=69 / qpstep=4 / ip_ratio=1.40 / pb_ratio=1.30 / aq=1:1.00
Язык : English

Аудио
Идентификатор : 2
Формат : AC-3
Формат/Информация : Audio Coding 3
Расширение режима : CM (complete main)
Идентификатор кодека : A_AC3
Продолжительность : 1 ч. 41 м.
Вид битрейта : Постоянный
Битрейт : 640 Кбит/сек
Каналы : 6 каналов
Расположение каналов : Front: L C R, Side: L R, LFE
Частота : 48,0 КГц
Битовая глубина : 16 бит
Метод сжатия : С потерями
Размер потока : 464 Мбайт (5%)
Язык : Russian

Свернуть
"Знаете ли Вы, что..."
  • Первоначально роль Кросса должен был играть Идрис Эльба, но актёр выбыл из проекта. Его место занял Тайлер Перри.
  • Сценарий фильма написан по роману Джеймса Паттерсона «Кросс». Для маркетинговых целей название фильма было заменено названием другого романа Паттерсона «Я, Алекс Кросс».
  • Для своей роли Мэттью Фокс прошел строгую диету и тренировки, чтобы нарастить мышечную массу и избавиться от лишнего веса.
Свернуть
Скриншоты

Изображение

Изображение

Изображение

Изображение
Свернуть
Не в сети
Профиль  
 Добавлено: 2014-06-28 23:09 (спустя 1 год 6 месяцев)
Стаж: 6 лет 10 месяцев
Сообщений: 21
дайте скорости
Не в сети
Профиль  
Начать новую темуОтветить на тему  [ Сообщений: 2 ] 
Вы не можете начинать темы
Вы не можете отвечать на сообщения
Вы не можете редактировать свои сообщения
Вы не можете удалять свои сообщения