Правила форума

  • В этом разделе создание новых тем Запрещено.
  • Для создания новых тем пользуйтесь Корневым разделом DVD и HD фильмы.
Начать новую темуОтветить на тему  [ Сообщений: 3 ] 
Торрент файл
Размер: 11.88 GB • Зарегистрирован: 3 года 11 месяцев • Статус: Проверено
Скачан: 266 раз • Желающих скачать: 0 • Поблагодарили: 53 раза
 Раздают: 0  |  0 KB/s  ]   Качают: 0  |  0 KB/s  ] 
 Полного источника не было 1 месяц 3 дня 
Сообщения
 Добавлено: 2012-12-09 06:33
Аватара пользователя
Стаж: 9 лет 1 месяц
Сообщений: 7922
Спасибок: 122117
Лайков: 1191
Я, Алекс Кросс / Alex Cross

«Жестокое преступление. Извращенный убийца. Смертельная игра»

Изображение


Год выпуска: 2012
Страна: Изображение США
Жанр: боевик, триллер, криминал, детектив
Продолжительность: 01:41:23
Субтитры: Русские
Перевод: Профессиональный (полное дублирование)


Режиссёр: Роб Коэн
Сценарист: Марк Мосс, Керри Уильямсон, Джеймс Паттерсон
Продюсер: Билл Блок, Стив Бауэн, Рэндолл Эмметт
Оператор: Рикардо Делла Роза
Композитор: Джон Дебни

В ролях: Тайлер Перри, Рэйчел Николс, Мэттью Фокс, Эдвард Бёрнс, Жан Рено, Джанкарло Эспозито, Джон К. МакГинли, Кармен Эджого, Сисели Тайсон, Чад Линдберг

Описание: Знаменитый детектив Алекс Кросс идет по следам серийного убийцы, и с удивлением обнаруживает, что почерк преступника соответствует манере действий безжалостного маньяка по прозвищу Мясник. Десять лет назад Кросс сорвал исполнение одного из его смертельных контрактов, за что Мясник убил беременную жену полицейского и бесследно исчез. Неужели он вернулся? Кросс вступает в смертельную игру.

Изображение Изображение

Качество: BDRip (1080p)
Формат: Matroska
Видео: MPEG-4 AVC, 13.3 Мбит/с, 1920x1080
Аудио №1: Русский AC3, 448 Кбит/сек, 6 ch
Аудио №2: Русский DTS 1510 Кбит/сек (6ch), 48,0 КГц, 16 бит
Аудио №3: Английский DTS 1510 Кбит/сек (6ch), 48,0 КГц, 16 бит

MediaInfo
Общее
Уникальный идентификатор : 211881183667098004595791696238315222320 (0x9F66D4E58D02B0A7A32911E420B6B530)
Полное имя : H:\Alex.Cross.2012.D.BDRip.1080p.nntt.org.mkv
Формат : Matroska
Версия формата : Version 2
Размер файла : 11,9 Гбайт
Продолжительность : 1 ч. 41 м.
Общий поток : 16,8 Мбит/сек
Название фильма : -=NNM-CLUB.RU=-
Дата кодирования : UTC 2012-12-09 03:43:40
Программа кодирования : mkvmerge v5.8.0 ('No Sleep / Pillow') built on Sep 2 2012 15:37:04
Библиотека кодирования : libebml v1.2.3 + libmatroska v1.3.0

Видео
Идентификатор : 1
Формат : AVC
Формат/Информация : Advanced Video Codec
Профиль формата : High@L4.1
Параметр CABAC формата : Да
Параметр ReFrames формата : 4 кадра
Режим смешивания : Header stripping
Идентификатор кодека : V_MPEG4/ISO/AVC
Продолжительность : 1 ч. 41 м.
Битрейт : 13,3 Мбит/сек
Ширина : 1920 пикселей
Высота : 1080 пикселей
Соотношение сторон : 16:9
Режим частоты кадров : Постоянный
Частота кадров : 24,000 кадра/сек
Цветовое пространство : YUV
Субдискретизация насыщенности : 4:2:0
Битовая глубина : 8 бит
Тип развёртки : Прогрессивная
Бит/(Пиксели*Кадры) : 0.268
Размер потока : 9,19 Гбайт (77%)
Заголовок : Alex.Cross.2012.BDRip.1080p.NNM-CLUB.GIU
Библиотека кодирования : x264 core 125 r2200 999b753
Настройки программы : cabac=1 / ref=4 / deblock=1:-3:-3 / analyse=0x3:0x113 / me=umh / subme=11 / psy=1 / psy_rd=2.00:1.00 / mixed_ref=1 / me_range=32 / chroma_me=1 / trellis=2 / 8x8dct=1 / cqm=0 / deadzone=21,11 / fast_pskip=1 / chroma_qp_offset=-4 / threads=12 / lookahead_threads=2 / sliced_threads=0 / nr=0 / decimate=1 / interlaced=0 / bluray_compat=0 / constrained_intra=0 / bframes=7 / b_pyramid=2 / b_adapt=2 / b_bias=0 / direct=1 / weightb=0 / open_gop=0 / weightp=2 / keyint=240 / keyint_min=24 / scenecut=40 / intra_refresh=0 / rc_lookahead=40 / rc=2pass / mbtree=1 / bitrate=13320 / ratetol=1.0 / qcomp=0.70 / qpmin=0 / qpmax=51 / qpstep=4 / cplxblur=20.0 / qblur=0.5 / ip_ratio=1.40 / aq=1:1.00
Язык : English
Default : Нет
Forced : Нет

Аудио #1
Идентификатор : 2
Формат : AC-3
Формат/Информация : Audio Coding 3
Расширение режима : CM (complete main)
Параметр Endianness формата : Big
Идентификатор кодека : A_AC3
Продолжительность : 1 ч. 41 м.
Вид битрейта : Постоянный
Битрейт : 448 Кбит/сек
Каналы : 6 каналов
Расположение каналов : Front: L C R, Side: L R, LFE
Частота : 48,0 КГц
Битовая глубина : 16 бит
Метод сжатия : С потерями
Размер потока : 325 Мбайт (3%)
Default : Да
Forced : Да

Аудио #2
Идентификатор : 3
Формат : DTS
Формат/Информация : Digital Theater Systems
Режим : 16
Параметр Endianness формата : Big
Режим смешивания : Header stripping
Идентификатор кодека : A_DTS
Продолжительность : 1 ч. 41 м.
Вид битрейта : Постоянный
Битрейт : 1509 Кбит/сек
Каналы : 6 каналов
Расположение каналов : Front: L C R, Side: L R, LFE
Частота : 48,0 КГц
Битовая глубина : 16 бит
Метод сжатия : С потерями
Задержка видео : 11 мс.
Размер потока : 1,07 Гбайт (9%)
Заголовок : DTS.1510.Kbps (6ch) Russian
Язык : Russian
Default : Нет
Forced : Нет

Аудио #3
Идентификатор : 4
Формат : DTS
Формат/Информация : Digital Theater Systems
Режим : 16
Параметр Endianness формата : Big
Режим смешивания : Header stripping
Идентификатор кодека : A_DTS
Продолжительность : 1 ч. 41 м.
Вид битрейта : Постоянный
Битрейт : 1509 Кбит/сек
Каналы : 6 каналов
Расположение каналов : Front: L C R, Side: L R, LFE
Частота : 48,0 КГц
Битовая глубина : 16 бит
Метод сжатия : С потерями
Задержка видео : 11 мс.
Размер потока : 1,07 Гбайт (9%)
Заголовок : DTS.1510.Kbps (6ch) English
Язык : English
Default : Нет
Forced : Нет

Текст
Идентификатор : 5
Формат : UTF-8
Идентификатор кодека : S_TEXT/UTF8
Идентификатор кодека/Информация : UTF-8 Plain Text
Заголовок : Russian (Full)
Язык : Russian
Default : Да
Forced : Нет

Меню
00:00:00.000 : en:Chapter 00
00:03:06.250 : en:Chapter 01
00:08:32.708 : en:Chapter 02
00:14:43.291 : en:Chapter 03
00:22:34.000 : en:Chapter 04
00:31:05.458 : en:Chapter 05
00:35:22.500 : en:Chapter 06
00:39:46.125 : en:Chapter 07
00:46:41.166 : en:Chapter 08
00:48:43.000 : en:Chapter 09
00:56:28.500 : en:Chapter 10
01:03:28.166 : en:Chapter 11
01:07:51.375 : en:Chapter 12
01:12:58.750 : en:Chapter 13
01:18:01.583 : en:Chapter 14
01:23:09.791 : en:Chapter 15
01:28:31.666 : en:Chapter 16
01:33:49.083 : en:Chapter 17
Свернуть
Знаете ли вы, что...
Первоначально роль Кросса должен был играть Идрис Эльба, но актёр выбыл из проекта. Его место занял Тайлер Перри.

Сценарий фильма написан по роману Джеймса Паттерсона «Кросс». Для маркетинговых целей название фильма было заменено названием другого романа Паттерсона «Я, Алекс Кросс».

Для своей роли Мэттью Фокс прошел строгую диету и тренировки, чтобы нарастить мышечную массу и избавиться от лишнего веса.
Свернуть
Скриншоты
Изображение
Изображение
Изображение
Изображение
Изображение
Свернуть
В сети
Профиль  
 Добавлено: 2012-12-10 19:14 (спустя 1 день 12 часов)
Стаж: 5 лет 3 месяца
Сообщений: 150
Лайков: 1
Пф!Мне фильм абсолютно не понравился!Всё предсказуемо,всё бонально!Всё как всегда короче!Фуфло....
Не в сети
Профиль  
 Добавлено: 2012-12-15 14:52 (спустя 4 дня)
Аватара пользователя
Стаж: 7 лет 11 месяцев
Сообщений: 786
Спасибок: 25
Лайков: 9
:men: А мнне понравился фильм отличный и классно снят для боевика
Не в сети
Профиль  
Начать новую темуОтветить на тему  [ Сообщений: 3 ] 
Вы не можете начинать темы
Вы не можете отвечать на сообщения
Вы не можете редактировать свои сообщения
Вы не можете удалять свои сообщения