Правила форума

  • В этом разделе создание новых тем Запрещено.
  • Для создания новых тем пользуйтесь Корневым разделом DVD и HD фильмы.
Начать новую темуОтветить на тему  [ Сообщений: 6 ] 
Торрент файл
Размер: 6.14 GB • Зарегистрирован: 5 лет 6 месяцев • Статус: Проверено
Скачан: 257 раз • Желающих скачать: 0 • Поблагодарили: 54 раза
 Раздают: 0  |  0 KB/s  ]   Качают: 0  |  0 KB/s  ] 
 Полного источника не было 1 месяц 
Сообщения
 Добавлено: 2011-05-18 18:08
Модератор
Аватара пользователя
Стаж: 7 лет 9 месяцев
Сообщений: 4521
Спасибок: 112850
Лайков: 583
Я – Четвертый

I Am Number Four

«Трое уже мертвы... Он – четвертый...»


Изображение


Год выпуска: 2011
Страна: США, DreamWorks SKG
Жанр: Фантастика, боевик, триллер
Продолжительность: 01:49:35
Перевод: Профессиональный (полное дублирование) Лицензия
Режиссер: Ди Джей Каруз
Сценарий: Альфред Гоф, Майлз Миллар, Марти Ноксон
Продюсер: Майкл Бэй, Крис Бендер, Эмили Бергер
Оператор: Гильермо Наварро
Композитор: Тревор Рэбин
Художник: Том Саутуэлл, Дуглас Камминг, Джон Б. Джосселин
Монтаж: Винс Филиппоне, Джим Пейдж
В ролях: Алекс Петтифер, Тимоти Олифант, Тереза Палмер, Дианна Агрон, Каллэн МакОлиффи, Кевин Дюран, Джэйк Абель, Джефф Хочендонер, Патрик Сибис, Грег Таунлей
Описание: Обычный с виду подросток Джон Смит на самом деле — один из последних выживших обитателей далекой планеты. Джон вынужден скрываться от страшных врагов, посланных уничтожить его, ему приходится менять имена, постоянно переезжая с места на место со своим опекуном Генри. В разных городках и в разных школах Джон всегда был новичком без прошлого, но однажды он нашел место, которое смог назвать домом: в маленьком городке в Огайо Джон встретил свою любовь. Теперь ему предстоит открыть в себе уникальные способности, сразиться с древними и страшными врагами своего народа и осознать свое удивительное предназначение.

Раздача: Изображение

Доп. информация
Премьера (мир): 17 февраля 2011
Премьера (РФ): 24 февраля 2011, «WDSSPR»
Релиз на DVD: 24 мая 2011, «Уолт Дисней Компани СНГ»
Релиз на Blu-Ray: 24 мая 2011, «Уолт Дисней Компани СНГ»
Свернуть

Кинопоиск: 6.569 (9250)
IMDb: 6.20 (20794)
Изображение
Качество: BDRip 720p
Формат: MKV
Видео: 1280x694, AVC, 6835 kb/s
Аудио 1: Russian: AC3, 384 kb/s (6 ch)
Аудио 2: English: AC3, 640 kb/s (6 ch)
Субтитры: Russian [Forced, Full], English
Размер: 6.14 GB

NFO
H:\Ja.Chetvertyj.2011.D.BDRip.720p.mkv
General
Complete name : H:\Ja.Chetvertyj.2011.D.BDRip.720p.mkv
Format : Matroska
File size : 6.14 GiB
Duration : 1h 49mn
Overall bit rate : 8 019 Kbps
Movie name : I.Am.Number.Four.2011.720p.BluRay.DD5.1.x264-EbP
Encoded date : UTC 2011-05-18 07:09:39
Writing application : mkvmerge v3.4.0 ('Rapunzel') сборка от May 15 2010 09:38:20
Writing library : libebml v0.8.0 + libmatroska v0.9.0
Video #1
ID : 1
Format : AVC
Format/Info : Advanced Video Codec
Format profile : High@L4.1
Format settings, CABAC : Yes
Format settings, ReFrames : 9 frames
Muxing mode : Container profile=Unknown@4.1
Codec ID : V_MPEG4/ISO/AVC
Duration : 1h 49mn
Bit rate : 6 835 Kbps
Nominal bit rate : 7 000 Kbps
Width : 1 280 pixels
Height : 694 pixels
Display aspect ratio : 16:9
Frame rate : 23.976 fps
Resolution : 24 bits
Colorimetry : 4:2:0
Scan type : Progressive
Bits/(Pixel*Frame) : 0.321
Stream size : 5.23 GiB (85%)
Writing library : x264 core 115 r1937 aa21558
Encoding settings : cabac=1 / ref=9 / deblock=1:-3:-3 / analyse=0x3:0x113 / me=umh / subme=9 / psy=1 / psy_rd=1.20:0.00 / mixed_ref=1 / me_range=16 / chroma_me=1 / trellis=2 / 8x8dct=1 / cqm=0 / deadzone=21,11 / fast_pskip=0 / chroma_qp_offset=-2 / threads=6 / sliced_threads=0 / nr=0 / decimate=0 / interlaced=0 / bluray_compat=0 / constrained_intra=0 / bframes=7 / b_pyramid=2 / b_adapt=2 / b_bias=0 / direct=3 / weightb=1 / open_gop=0 / weightp=2 / keyint=250 / keyint_min=23 / scenecut=40 / intra_refresh=0 / rc=2pass / mbtree=0 / bitrate=7000 / ratetol=1.0 / qcomp=0.60 / qpmin=0 / qpmax=69 / qpstep=4 / cplxblur=20.0 / qblur=0.5 / ip_ratio=1.40 / pb_ratio=1.30 / aq=1:0.90
Language : English
Audio #2
ID : 2
Format : AC-3
Format/Info : Audio Coding 3
Codec ID : A_AC3
Duration : 1h 49mn
Bit rate mode : Constant
Bit rate : 384 Kbps
Channel(s) : 6 channels
Channel positions : Front: L C R, Surround: L R, LFE
Sampling rate : 48.0 KHz
Stream size : 301 MiB (5%)
Title : AC3 384 kbs 5.1 Dub
Language : Russian
Audio #3
ID : 3
Format : AC-3
Format/Info : Audio Coding 3
Codec ID : A_AC3
Duration : 1h 49mn
Bit rate mode : Constant
Bit rate : 640 Kbps
Channel(s) : 6 channels
Channel positions : Front: L C R, Surround: L R, LFE
Sampling rate : 48.0 KHz
Stream size : 502 MiB (8%)
Title : AC3 640 kbs 5.1
Language : English
Text #4
ID : 4
Format : UTF-8
Codec ID : S_TEXT/UTF8
Codec ID/Info : UTF-8 Plain Text
Title : Forced
Language : Russian
Text #5
ID : 5
Format : UTF-8
Codec ID : S_TEXT/UTF8
Codec ID/Info : UTF-8 Plain Text
Title : Full
Language : Russian
Text #6
ID : 6
Format : UTF-8
Codec ID : S_TEXT/UTF8
Codec ID/Info : UTF-8 Plain Text
Title : Full
Language : English
Свернуть

Скриншоты
Изображение

Изображение

Изображение
Свернуть
_________________
Изображение


Последний раз редактировалось kits 2011-05-18 18:47, всего редактировалось 1 раз.
Не в сети
Профиль  
 Добавлено: 2011-05-18 18:46 (спустя 38 минут)
Стоппер
Аватара пользователя
Стаж: 8 лет 3 месяца
Возраст: 24
Сообщений: 3551
Спасибок: 83110
Лайков: 20
Присоединюсь пожалуй)
Не в сети
Профиль  
 Добавлено: 2011-05-18 18:48 (спустя 2 минуты)
Модератор
Аватара пользователя
Стаж: 7 лет 9 месяцев
Сообщений: 4521
Спасибок: 112850
Лайков: 583
amigo1992
:co_ol: полетели!
Не в сети
Профиль  
 Добавлено: 2011-05-21 07:17 (спустя 2 дня 12 часов)
Аватара пользователя
Стаж: 7 лет 10 месяцев
Сообщений: 35
Спасибок: 28
:co_ol: :co_ol: :co_ol: :co_ol: :co_ol: :co_ol: :co_ol:
Не в сети
Профиль  
 Добавлено: 2011-12-17 22:21 (спустя 6 месяцев)
Аватара пользователя
Стаж: 7 лет 11 месяцев
Сообщений: 9
Спасибок: 69
отлично! спасибо!
Не в сети
Профиль  
 Добавлено: 2012-01-28 17:06 (спустя 1 месяц 10 дней)
Стаж: 7 лет 11 месяцев
Сообщений: 3
:co_ol: :co_ol: :co_ol: :co_ol: :co_ol: :co_ol: :co_ol: :co_ol: :co_ol: :co_ol: :co_ol: :co_ol: :co_ol: :co_ol: :co_ol: :co_ol: :co_ol:
Не в сети
Профиль  
Начать новую темуОтветить на тему  [ Сообщений: 6 ] 
Вы не можете начинать темы
Вы не можете отвечать на сообщения
Вы не можете редактировать свои сообщения
Вы не можете удалять свои сообщения