Правила форума

  • В этом разделе создание новых тем Запрещено.
  • Для создания новых тем пользуйтесь Корневым разделом DVD и HD фильмы.
Начать новую темуОтветить на тему  [ Сообщений: 12 ] 
Торрент файл
Размер: 11.16 GB • Зарегистрирован: 5 лет 6 месяцев • Статус: Проверено
Скачан: 504 раза • Желающих скачать: 0 • Поблагодарили: 72 раза
 Раздают: 0  |  0 KB/s  ]   Качают: 0  |  0 KB/s  ] 
 Полного источника не было 2 года 4 месяца 
Сообщения
 Добавлено: 2011-05-18 18:49
Модератор
Аватара пользователя
Стаж: 7 лет 9 месяцев
Сообщений: 4521
Спасибок: 112847
Лайков: 583
Я – Четвертый

I Am Number Four

«Трое уже мертвы... Он – четвертый...»


Изображение


Год выпуска: 2011
Страна: США, DreamWorks SKG
Жанр: Фантастика, боевик, триллер
Продолжительность: 01:49:34
Перевод: Профессиональный (полное дублирование) Лицензия
Cубтитры: русские (форсированные, полные), английские
Режиссер: Ди Джей Каруз
Сценарий: Альфред Гоф, Майлз Миллар, Марти Ноксон
Продюсер: Майкл Бэй, Крис Бендер, Эмили Бергер
Оператор: Гильермо Наварро
Композитор: Тревор Рэбин
Художник: Том Саутуэлл, Дуглас Камминг, Джон Б. Джосселин
Монтаж: Винс Филиппоне, Джим Пейдж
В ролях: Алекс Петтифер, Тимоти Олифант, Тереза Палмер, Дианна Агрон, Каллэн МакОлиффи, Кевин Дюран, Джэйк Абель, Джефф Хочендонер, Патрик Сибис, Грег Таунлей
Описание: Обычный с виду подросток Джон Смит на самом деле — один из последних выживших обитателей далекой планеты. Джон вынужден скрываться от страшных врагов, посланных уничтожить его, ему приходится менять имена, постоянно переезжая с места на место со своим опекуном Генри. В разных городках и в разных школах Джон всегда был новичком без прошлого, но однажды он нашел место, которое смог назвать домом: в маленьком городке в Огайо Джон встретил свою любовь. Теперь ему предстоит открыть в себе уникальные способности, сразиться с древними и страшными врагами своего народа и осознать свое удивительное предназначение.

Раздача: Изображение

Доп. информация
Премьера (мир): 17 февраля 2011
Премьера (РФ): 24 февраля 2011, «WDSSPR»
Релиз на DVD: 24 мая 2011, «Уолт Дисней Компани СНГ»
Релиз на Blu-Ray: 24 мая 2011, «Уолт Дисней Компани СНГ»
Свернуть

Кинопоиск: 6.569 (9250)
IMDb: 6.20 (20794)
Изображение
Качество: BDRip 1080p
Формат: MKV
Видео: MPEG-4 AVC, 1920x1036 (1.85:1), 23.976 fps, L4.1 High @ 12861 Kbps
Аудио 1: Русский AC3 5.1 48 kHz ~384 kbps [R5]
Аудио 2: Английский DTS 5.1 48 kHz ~1536 kbps
Формат субтитров: SRT
Сохранены оригинальные чаптеры как на Blu-ray

MediaInfo
General
Unique ID : 242680253135890607781240432595370538292 (0xB6928442B04DCEE8B7A3FCDDCAF07534)
Complete name : I.Am.Number.Four.D.2011.BluRay.1080p.DTS.AC3.x264-CHD.mkv
Format : Matroska
File size : 11.2 GiB
Duration : 1h 49mn
Overall bit rate : 14.6 Mbps
Encoded date : UTC 2011-05-18 14:13:42
Writing application : mkvmerge v3.3.0 ('Language') built on Mar 24 2010 14:59:24
Writing library : libebml v0.8.0 + libmatroska v0.9.0

Video
ID : 1
Format : AVC
Format/Info : Advanced Video Codec
Format profile : High@L4.1
Format settings, CABAC : Yes
Format settings, ReFrames : 4 frames
Codec ID : V_MPEG4/ISO/AVC
Duration : 1h 49mn
Bit rate : 12.9 Mbps
Width : 1 920 pixels
Height : 1 036 pixels
Display aspect ratio : 1.853
Frame rate : 23.976 fps
Color space : YUV
Chroma subsampling : 4:2:0
Bit depth : 8 bits
Scan type : Progressive
Bits/(Pixel*Frame) : 0.270
Stream size : 9.61 GiB (86%)
Title : I.Am.Number.Four.2011
Writing library : x264 core 114 r1924 08d04a4
Encoding settings : cabac=1 / ref=4 / deblock=1:-3:-3 / analyse=0x3:0x113 / me=umh / subme=10 / psy=1 / psy_rd=1.05:0.10 / mixed_ref=1 / me_range=48 / chroma_me=1 / trellis=2 / 8x8dct=1 / cqm=2 / deadzone=21,11 / fast_pskip=0 / chroma_qp_offset=-2 / threads=12 / sliced_threads=0 / nr=0 / decimate=1 / interlaced=0 / constrained_intra=0 / bframes=6 / b_pyramid=2 / b_adapt=2 / b_bias=0 / direct=3 / weightb=1 / open_gop=0 / weightp=2 / keyint=250 / keyint_min=23 / scenecut=40 / intra_refresh=0 / rc_lookahead=60 / rc=2pass / mbtree=1 / bitrate=12861 / ratetol=1.0 / qcomp=0.70 / qpmin=1 / qpmax=63 / qpstep=4 / cplxblur=20.0 / qblur=0.5 / vbv_maxrate=40000 / vbv_bufsize=40000 / nal_hrd=none / ip_ratio=1.40 / aq=2:0.80
Language : English

Audio #1
ID : 2
Format : DTS
Format/Info : Digital Theater Systems
Codec ID : A_DTS
Duration : 1h 49mn
Bit rate mode : Constant
Bit rate : 1 344 Kbps
Channel(s) : 6 channels
Channel positions : Front: L C R, Side: L R, LFE
Sampling rate : 48.0 KHz
Bit depth : 24 bits
Compression mode : Lossy
Stream size : 1.03 GiB (9%)
Title : DTS-CORE 1536K
Language : English

Audio #2
ID : 3
Format : AC-3
Format/Info : Audio Coding 3
Mode extension : CM (complete main)
Codec ID : A_AC3
Duration : 1h 49mn
Bit rate mode : Constant
Bit rate : 384 Kbps
Channel(s) : 6 channels
Channel positions : Front: L C R, Side: L R, LFE
Sampling rate : 48.0 KHz
Bit depth : 16 bits
Compression mode : Lossy
Delay relative to video : 22ms
Stream size : 301 MiB (3%)
Title : 384 kbps 5.1 Dub
Language : Russian

Text #1
ID : 4
Format : UTF-8
Codec ID : S_TEXT/UTF8
Codec ID/Info : UTF-8 Plain Text
Title : Forced
Language : Russian

Text #2
ID : 5
Format : UTF-8
Codec ID : S_TEXT/UTF8
Codec ID/Info : UTF-8 Plain Text
Language : Russian

Text #3
ID : 6
Format : UTF-8
Codec ID : S_TEXT/UTF8
Codec ID/Info : UTF-8 Plain Text
Language : English

Menu
00:00:00.000 : en:00:00:00.000
00:04:09.249 : en:00:04:09.249
00:11:33.192 : en:00:11:33.192
00:18:00.454 : en:00:18:00.454
00:25:41.373 : en:00:25:41.373
00:30:58.106 : en:00:30:58.106
00:39:29.534 : en:00:39:29.534
00:45:30.311 : en:00:45:30.311
00:54:51.663 : en:00:54:51.663
01:03:43.403 : en:01:03:43.403
01:14:23.209 : en:01:14:23.209
01:21:59.790 : en:01:21:59.790
01:27:39.337 : en:01:27:39.337
01:32:27.625 : en:01:32:27.625
01:37:03.568 : en:01:37:03.568
01:41:56.152 : en:01:41:56.152
Свернуть

Скриншоты
Изображение

Изображение

Изображение
Свернуть
_________________
Изображение


Последний раз редактировалось kits 2011-05-18 19:16, всего редактировалось 1 раз.
Не в сети
Профиль  
 Добавлено: 2011-05-22 08:04 (спустя 3 дня)
Аватара пользователя
Стаж: 8 лет 10 месяцев
Возраст: 35
Сообщений: 33
мне не очень понравился
Не в сети
Профиль  
 Добавлено: 2011-05-22 10:59 (спустя 2 часа 54 минуты)
Стаж: 5 лет 11 месяцев
Сообщений: 40
Спасибок: 7
скачал фильм,почему нет перевода?????? :sh_ok: :sh_ok: :sh_ok:
Не в сети
Профиль  
 Добавлено: 2011-05-23 20:56 (спустя 1 день 9 часов)
Top-releaser
Аватара пользователя
Стаж: 8 лет 7 месяцев
Сообщений: 1286
Спасибок: 3420
Лайков: 7
У меня почему-то рассинхрон местами наблюдается, звук местами запаздывает, местами вперёд забегает. Проигрываетель KMPlayer. Пробовал через TotalMedia смотреть, там почему-то русская дорога отсутствует.
По фильму - разок можно посмотреть. Ждём продолжения.
Не в сети
Профиль  
 Добавлено: 2011-05-28 11:54 (спустя 4 дня)
Аватара пользователя
Стаж: 9 лет
Сообщений: 9
Нет ни дубляжа, ни субтитров!
Need HELP!
Не в сети
Профиль  
 Добавлено: 2011-05-28 15:28 (спустя 3 часа)
Top-releaser
Аватара пользователя
Стаж: 8 лет 7 месяцев
Сообщений: 1286
Спасибок: 3420
Лайков: 7
Pblr87 Насчёт сабов незнаю, а дубляж точно есть.
Не в сети
Профиль  
 Добавлено: 2011-06-04 23:58 (спустя 7 дней)
Аватара пользователя
Стаж: 8 лет 9 месяцев
Сообщений: 1170
Спасибок: 1294
Лайков: 7
где дубляж? оригинал шпарит и только
Не в сети
Профиль  
 Добавлено: 2011-06-05 11:39 (спустя 11 часов)
Аватара пользователя
Стаж: 8 лет 10 месяцев
Возраст: 36
Сообщений: 440
Спасибок: 5166
Media Player Classic - Home Cinema х64 сборка 1.5.2.3052
дубляж есть, сабы Англ., Рус., Рус (форс.)
всё согласно MediaInfo
"Вот мой"
General
Unique ID : 242680253135890607781240432595370538292 (0xB6928442B04DCEE8B7A3FCDDCAF07534)
Complete name : D:\I.Am.Number.Four.D.2011.BluRay.1080p.DTS.AC3.x264-CHD.mkv
Format : Matroska
File size : 11.2 GiB
Duration : 1h 49mn
Overall bit rate : 14.6 Mbps
Movie name : cyberjam
Encoded date : UTC 2011-05-18 14:13:42
Writing application : mkvmerge v3.3.0 ('Language') built on Mar 24 2010 14:59:24
Writing library : libebml v0.8.0 + libmatroska v0.9.0

Video
ID : 1
Format : AVC
Format/Info : Advanced Video Codec
Format profile : High@L4.1
Format settings, CABAC : Yes
Format settings, ReFrames : 4 frames
Codec ID : V_MPEG4/ISO/AVC
Duration : 1h 49mn
Bit rate : 12.9 Mbps
Width : 1 920 pixels
Height : 1 036 pixels
Display aspect ratio : 1.853
Frame rate : 23.976 fps
Color space : YUV
Chroma subsampling : 4:2:0
Bit depth : 8 bits
Scan type : Progressive
Bits/(Pixel*Frame) : 0.270
Stream size : 9.61 GiB (86%)
Title : I.Am.Number.Four.2011
Writing library : x264 core 114 r1924 08d04a4
Encoding settings : cabac=1 / ref=4 / deblock=1:-3:-3 / analyse=0x3:0x113 / me=umh / subme=10 / psy=1 / psy_rd=1.05:0.10 / mixed_ref=1 / me_range=48 / chroma_me=1 / trellis=2 / 8x8dct=1 / cqm=2 / deadzone=21,11 / fast_pskip=0 / chroma_qp_offset=-2 / threads=12 / sliced_threads=0 / nr=0 / decimate=1 / interlaced=0 / constrained_intra=0 / bframes=6 / b_pyramid=2 / b_adapt=2 / b_bias=0 / direct=3 / weightb=1 / open_gop=0 / weightp=2 / keyint=250 / keyint_min=23 / scenecut=40 / intra_refresh=0 / rc_lookahead=60 / rc=2pass / mbtree=1 / bitrate=12861 / ratetol=1.0 / qcomp=0.70 / qpmin=1 / qpmax=63 / qpstep=4 / cplxblur=20.0 / qblur=0.5 / vbv_maxrate=40000 / vbv_bufsize=40000 / nal_hrd=none / ip_ratio=1.40 / aq=2:0.80
Language : English

Audio #1
ID : 2
Format : DTS
Format/Info : Digital Theater Systems
Codec ID : A_DTS
Duration : 1h 49mn
Bit rate mode : Constant
Bit rate : 1 344 Kbps
Channel(s) : 6 channels
Channel positions : Front: L C R, Side: L R, LFE
Sampling rate : 48.0 KHz
Bit depth : 24 bits
Compression mode : Lossy
Stream size : 1.03 GiB (9%)
Title : DTS-CORE 1536K
Language : English

Audio #2
ID : 3
Format : AC-3
Format/Info : Audio Coding 3
Mode extension : CM (complete main)
Codec ID : A_AC3
Duration : 1h 49mn
Bit rate mode : Constant
Bit rate : 384 Kbps
Channel(s) : 6 channels
Channel positions : Front: L C R, Side: L R, LFE
Sampling rate : 48.0 KHz
Bit depth : 16 bits
Compression mode : Lossy
Delay relative to video : 22ms
Stream size : 301 MiB (3%)
Title : 384 kbps 5.1 Dub
Language : Russian

Text #1
ID : 4
Format : UTF-8
Codec ID : S_TEXT/UTF8
Codec ID/Info : UTF-8 Plain Text
Title : Forced
Language : Russian

Text #2
ID : 5
Format : UTF-8
Codec ID : S_TEXT/UTF8
Codec ID/Info : UTF-8 Plain Text
Language : Russian

Text #3
ID : 6
Format : UTF-8
Codec ID : S_TEXT/UTF8
Codec ID/Info : UTF-8 Plain Text
Language : English

Menu
00:00:00.000 : en:00:00:00.000
00:04:09.249 : en:00:04:09.249
00:11:33.192 : en:00:11:33.192
00:18:00.454 : en:00:18:00.454
00:25:41.373 : en:00:25:41.373
00:30:58.106 : en:00:30:58.106
00:39:29.534 : en:00:39:29.534
00:45:30.311 : en:00:45:30.311
00:54:51.663 : en:00:54:51.663
01:03:43.403 : en:01:03:43.403
01:14:23.209 : en:01:14:23.209
01:21:59.790 : en:01:21:59.790
01:27:39.337 : en:01:27:39.337
01:32:27.625 : en:01:32:27.625
01:37:03.568 : en:01:37:03.568
01:41:56.152 : en:01:41:56.152


Свернуть
Не в сети
Профиль  
 Добавлено: 2011-06-16 22:23 (спустя 11 дней)
Стаж: 5 лет 11 месяцев
Сообщений: 40
Спасибок: 7
нет перевода :( :( :( :( :( :( :( :( :( :( :( :( :( :( :( :( :( :( :( :( :( :( нет перевода :( :( :( :( :( :( :( :( :( :( :( :( :( :( :( :( нет перевода
Не в сети
Профиль  
 Добавлено: 2011-10-30 12:37 (спустя 4 месяца 13 дней)
Аватара пользователя
Стаж: 8 лет 10 месяцев
Возраст: 27
Сообщений: 721
Спасибок: 5528
Лайков: 1
норм фильм :)
_________________
Изображение
Не в сети
Профиль  
 Добавлено: 2011-10-30 13:52 (спустя 1 час 15 минут)
Стаж: 9 лет
Сообщений: 312
Спасибок: 347
Лайков: 9
Не могли бы вы сделать скриншоты еще немного побольше весом? Просто хохмы ради
Не в сети
Профиль  
 Добавлено: 2011-10-30 13:56 (спустя 4 минуты)
Top-releaser
Аватара пользователя
Стаж: 8 лет 7 месяцев
Сообщений: 1286
Спасибок: 3420
Лайков: 7

Blaster:

Не могли бы вы сделать скриншоты еще немного побольше весом? Просто хохмы ради
А что не так со скринами?
Не в сети
Профиль  
Начать новую темуОтветить на тему  [ Сообщений: 12 ] 
Вы не можете начинать темы
Вы не можете отвечать на сообщения
Вы не можете редактировать свои сообщения
Вы не можете удалять свои сообщения